<?xml version="1.0" standalone="no"?> <!DOCTYPE svg PUBLIC "-//W3C//DTD SVG 1.0//EN" "http://www.w3.org/TR/2001/REC-SVG-20010904/DTD/svg10.dtd" > <svg xmlns="http://www.w3.org/2000/svg" width="100%" height="100%">
<defs>
<font horiz-adv-x="450" id="konqa"><font-face
    font-family="VKB KonQa"
    units-per-em="1000"
    panose-1="0 0 9 0 0 0 0 0 0 0"
    ascent="973"
    descent="-247"
    alphabetic="0" />
<missing-glyph horiz-adv-x="500" d="M63 0V800H438V0H63ZM125 63H375V738H125V63Z" />
<glyph unicode=" " glyph-name="space" horiz-adv-x="500" />
<glyph unicode="!" glyph-name="exclam" horiz-adv-x="290" d="M65 804H237L241 800V754L252 716V714L241 566Q245 546 245 512L241 492V465L252 431V362Q247 354 241 354L242 267L238 263H217Q214 263 210 272H206L193 263H122L113 270H109L99 263H66L61 267L59
340L48 374V376Q55 383 55 419V460Q55 486 37 510L48 549V589H53L55 576H57L59 591L60 800L65 804ZM177 736V725H187V734L184 736V739L177 736ZM101 666V660H111V671H105L101 666ZM198 668L205 662V664L200 668H198ZM209 664V662L216 664V668H214L209 664ZM134
607L141 603L148 605V612L143 616H141Q138 616 134 607ZM128 514L123 507V503L132 501L136 507V512L128 514ZM189 371V367L198 365L200 367V371L195 376H193L189 371ZM116 367V365Q125 356 125 349L132 354Q127 367 123 367H116ZM64 315V312L71 315V319H69L64 315ZM76
181H209Q230 181 248 159L245 125H234L229 120V118L234 113L245 115V52L241 48Q235 48 212 132H209Q188 48 177 48L148 45L141 54Q149 59 153 68L146 77H136L132 73V70Q132 62 139 54V52L128 45L94 48L153 2V0H103Q55 0 46 16Q55 16 55 21V23L50 29V59L32 75Q44
75 44 100L46 102H48L57 100L64 102L59 115L69 122L64 136V156Q64 161 71 161V177L76 181ZM94 147L91 145V140L98 134H105V140Q105 146 94 147ZM155 129L153 118V115L159 109Q174 113 175 120Q171 129 159 129H155ZM170 104V102L175 97H177L184 107L182 109H175L170
104Z" />
<glyph unicode="#" glyph-name="numbersign" horiz-adv-x="383" />
<glyph unicode="$" glyph-name="dollar" horiz-adv-x="566" d="M516 26Q516 40 528 50Q528 90 518 203V434L511 427L504 430L503 432L505 438L509 439L517 436L518 435V451Q512 451 504 458L502 461Q512 463 518 461V488L513 492H268V564H513L518 568V766L513
770H381V777Q385 785 397 798L390 818L393 839H389L386 832H384L383 840L400 968L395 972L212 973L208 970L210 939L199 914V912L214 827Q210 816 211 799L215 790V770H66Q62 770 62 756Q39 687 39 663V657Q39 638 62 615V587Q39 567 39 548V541Q40 537 49 533L39
506V500Q50 469 55 469V465H53Q50 465 39 393V389Q53 304 66 304H309V234H66Q65 234 55 176L39 71Q39 54 62 50V30L66 26H216L214 11H218L221 18H223L224 10L207 -118L212 -122L394 -123L399 -120L397 -89L408 -64V-62L393 23Q393 23 394 26H516ZM507 480L509 481L515
479L516 477L513 472L512 471L506 473L505 474L507 480ZM415 282Q421 282 421 286L425 282L419 275L415 279V282ZM410 261H417V255H410V261ZM317 605H311L309 607L313 613L317 609V605ZM338 886H345L349 883L348 879H338V886ZM321 797L320 795L312 794L308 797L309
799L317 800L321 797ZM301 852L306 854H308Q311 854 314 849L307 847L301 848V852ZM287 661H281V667H287V661ZM278 738L281 735V734L275 733L273 734V735L276 738H278ZM196 667L202 673H204Q208 672 212 663L206 661L196 665V667ZM202 496H204L208 492V490L204
486H202L198 490V492L202 496ZM200 609V613H206V609H200ZM76 741H82L84 739L80 735H76V741ZM84 723L80 719H78V723H84ZM103 448H99V452H103V448ZM130 667L126 663H111Q105 663 93 655L86 657Q84 673 78 682Q79 690 84 690H91L95 686Q130 680 130 673V667ZM136 733L140
737L144 733V731H136V733ZM146 463H142L138 467V469H146V463ZM157 535H153L148 543V546H151Q153 546 157 537V535ZM159 698L163 702H167V696H161L159 698ZM171 411L165 418V426H175L177 420L171 411ZM191 450L181 446L177 452V454L181 459H185L191 452V450ZM189
477V481Q206 477 206 469L200 465Q194 466 189 477ZM204 329L208 335L212 331L208 327H206L204 329ZM210 312H208V316H214L210 312ZM231 708Q209 705 202 705Q199 705 199 706Q199 708 233 717L229 711L231 708ZM236 882V884H238L243 882V880L236 882ZM247 477H245V481H247V477ZM247
880V882L252 884H254L247 880ZM262 624H256V630H262V624ZM266 925L268 927V928L275 926V919H265L266 925ZM272 322H270L266 327L270 331H272L274 329L272 322ZM161 219H163V213L161 211L157 215L161 219ZM142 46H132Q127 46 124 69H126Q137 69 144 56L142 46ZM165
118Q165 115 157 112L153 116V120L157 127L165 125V118ZM173 182L169 178H161V186L165 190H169L173 186V182ZM185 56H183L179 60H185V56ZM395 -43H403V-49L400 -51V-52L395 -51V-43ZM359 308H367V304L363 300L359 304V308ZM233 42L231 40L227 44V46H231L233 44V42ZM261
-61H259L265 -57V-58L261 -61ZM268 -36H262L258 -33L259 -29H269L268 -36ZM276 56H268V60L272 67L268 73H272Q275 73 278 65L276 56ZM281 228V230H289V228L285 224L281 228ZM286 53L287 55L295 56L298 53V51L290 50L286 53ZM303 -63L299 -61V-59L305 -61V-63H303ZM306
-2L301 -4H299Q296 -4 293 1L300 3L306 2V-2ZM319 46L313 40H311L307 44V50L309 52L319 50V46ZM321 263L332 267L340 259V257L338 255L321 261V263ZM331 -3H340V-10H334L331 -7V-3ZM341 -75L339 -77V-78L332 -76V-69H341V-75ZM355 -34H353L360 -30V-32L355 -34ZM369
-34L364 -32V-30L371 -32V-34H369ZM372 24L368 22H366Q363 22 361 27L367 29L372 28V24Z" />
<glyph unicode="&apos;" glyph-name="quotesingle" horiz-adv-x="269" d="M170 815Q173 807 177 806Q177 817 205 817H221L225 813L170 632H169L34 626L32 628Q76 784 87 812L170 815ZM113 763V757H116V756L122 757V763L118 766H116L113 763ZM197 763V759H198L202
763V764L197 763ZM190 763V759H193V763H190ZM142 724L139 717L144 714H146L149 717V722L142 724ZM130 640V637L137 635L141 640L135 646L130 640Z" />
<glyph unicode="(" glyph-name="parenleft" horiz-adv-x="318" d="M17 612L12 608V406H15L22 411Q31 412 36 399L33 397Q14 402 12 402Q14 351 10 323H8V332H3Q5 283 -6 231Q8 200 8 184Q28 172 29 161H15L12 170H8Q6 154 10 145Q7 122 7 106L8 68L3 61L2 56Q2
48 7 33T13 9L12 2L15 0Q91 2 96 2L106 9Q110 11 110 7L108 5L113 0H234L239 5V98L234 103H160Q162 116 156 139T150 173V309Q150 341 155 405T160 503Q160 512 173 512Q182 512 207 506T241 499Q254 499 255 509L259 611L146 612H17ZM19 486V484H24V486H19ZM57
463V458L61 453H66V463H57ZM124 428L129 423L136 430L134 437L124 428ZM117 399V397L124 395L127 397V404H122L117 399ZM87 355L89 353H96V360H92L87 355ZM24 341L22 339V334H29V337L24 341ZM127 271V262H134L136 269L134 271H127ZM17 191L24 184H26L31 189V191L26
196H22L17 191ZM75 180V175H80V180H75ZM26 9L31 5L36 9V14H31L26 9ZM185 7V2H188V7H185ZM28 603L33 607L37 603V598H33L28 603ZM110 607L112 605L110 607ZM208 530V525L213 520H218V530H208Z" />
<glyph unicode=")" glyph-name="parenright" horiz-adv-x="318" d="M293 612L297 608V406H295L288 411Q279 412 274 399L276 397Q296 402 297 402Q296 351 300 323H302V332H307Q305 283 316 231Q302 200 302 184Q281 172 281 161H295L297 170H302Q304 154 300
145Q303 122 303 106L302 68L307 61V56Q307 48 302 33T297 9V2L295 0Q219 2 213 2L204 9Q199 11 199 7L202 5L197 0H75L71 5V98L75 103H150Q148 116 154 139T160 173V309Q160 341 155 405T150 503Q150 512 137 512Q128 512 103 506T69 499Q55 499 55 509L51 611L164
612H293ZM290 486V484H286V486H290ZM253 463V458L248 453H244V463H253ZM186 428L181 423L174 430L176 437L186 428ZM193 399V397L186 395L183 397V404H188L193 399ZM223 355L220 353H213V360H218L223 355ZM286 341L288 339V334H281V337L286 341ZM183 271V262H176L174
269L176 271H183ZM293 191L286 184H283L279 189V191L283 196H288L293 191ZM234 180V175H230V180H234ZM283 9L279 5L274 9V14H279L283 9ZM125 7V2H122V7H125ZM282 603L277 607L273 603V598H277L282 603ZM200 607L198 605L200 607ZM102 530V525L97 520H92V530H102Z"
/>
<glyph unicode="*" glyph-name="asterisk" horiz-adv-x="611" d="M299 793Q285 743 263 690H157L243 624V622L213 523H216L297 582H303L389 521V523Q389 526 376 562T362 609H364L358 620V624L443 690Q395 690 391 692Q387 691 382 690H337Q331 690 331 705L335
710V714Q324 720 301 793H299ZM333 746V744L337 735H342V737L333 746ZM439 676V672H441V676H439ZM394 561V557H398V561H394ZM398 516L396 514V508H398L402 512L398 516ZM238 512V506H243L247 510L245 512H238ZM371 506V503H376V506H371ZM405 496H398H405Z" />
<glyph unicode="+" glyph-name="plus" horiz-adv-x="502" d="M186 500H313L318 495V419L320 435L318 377V326L424 325L434 309H447Q450 325 454 325H461L466 321V219L461 214L318 215V11L313 6H234V9L238 16V20L227 23H224L222 16L224 6H185L180 11V23Q172 23
167 51L172 133Q173 152 160 175L170 215L44 214L39 219V321L44 326H181V495L186 500ZM70 314V310H74L79 314L74 319L70 314ZM174 312V305H184V312H174ZM72 296V291H74L79 296H72ZM285 282L290 277H295V287H290L285 282ZM204 273L202 271V264H207L211 268V271L204
273ZM353 252L357 247L364 254L360 259L353 252ZM246 231V227Q258 227 258 222L264 227L255 238L246 231ZM350 231L346 224L348 222H355V227L350 231ZM251 166V164L255 159L260 164L258 166H251ZM188 83L198 71V76L195 83H188ZM236 51V48Q244 30 250 30L257 32Q257
47 236 51ZM304 51V44L308 48L306 51H304ZM176 32L180 27H183L187 32L180 37L176 32Z" />
<glyph unicode="," glyph-name="comma" horiz-adv-x="278" d="M178 72Q180 64 185 63Q185 74 213 74H229L232 70L178 -111H176L42 -117L40 -115Q83 41 94 69L178 72ZM120 20V14H124V13L129 14V20L125 23H124L120 20ZM204 20V16H206L209 20V21L204 20ZM197 20V16H201V20H197ZM150
-19L146 -26L152 -29H153L157 -26V-21L150 -19ZM138 -103V-106L145 -108L148 -103L143 -97L138 -103Z" />
<glyph unicode="-" glyph-name="hyphen" horiz-adv-x="540" d="M469 423V321L464 317H341V319L344 321V323L334 328L332 326H329L334 317H255L220 310Q216 317 203 317H175V319L177 325L175 326H168L170 317H54L49 321V418L61 427H87Q87 434 101 442H158L203 429Q203
434 227 438L282 436L396 442Q412 443 443 427H464L469 423ZM396 412H393V408H396V412ZM367 382H362V375H372V379L367 382ZM317 414H308L305 401L308 399Q320 402 320 408L317 414ZM308 334L303 330V326H313V330L308 334ZM265 358L258 356V351H268V354L265 356V358ZM248
408L246 410H241V405H244L248 408ZM97 414L90 412V406L94 403H97L101 406V410L97 414ZM85 421H83Q63 418 63 410L68 405Q85 409 85 421ZM85 367H78L83 364L85 366V367Z" />
<glyph unicode="." glyph-name="period" horiz-adv-x="249" d="M33 142H103Q149 142 159 133L166 126L164 82V40L161 37Q157 37 138 101H136Q118 37 114 37H49Q79 12 93 5V2L73 0Q9 2 9 16Q9 19 14 19V42Q14 52 0 58V59Q9 59 9 80L10 82H12L16 79Q24 93 24 100V122Q24
126 30 126V138L33 142ZM75 108L77 107H80L82 108H84L82 114Q75 111 75 108ZM35 66V65L38 61H40Q49 61 51 66V68L49 77H40Q35 75 35 66Z" />
<glyph unicode="/" glyph-name="slash" horiz-adv-x="621" d="M472 590L471 587L466 589L468 592L472 590ZM425 578L422 572L415 568L410 570L416 582L425 578ZM343 565L335 561L333 572L339 580L343 565ZM333 527L332 525H324L323 529L327 537L331 535L333 527ZM336
461L332 459L326 462L330 470L334 468L336 461ZM386 417L387 413L384 407L378 410L379 413L386 417ZM252 376L246 365L240 368L242 377L245 379L252 376ZM308 232L297 227L295 228L294 236L295 239L302 242L306 240L308 232ZM248 244L245 238L241 240L243 246L248
244ZM196 16L190 13L188 20L191 26L195 24L196 16ZM530 735L528 742L522 739L519 733L523 731L530 735ZM546 742L427 797L420 793L406 761Q399 744 379 715T352 670Q334 631 302 551T251 431L175 267Q159 246 132 199L126 186L131 177L125 174L72 60L73 53L112
42L119 46L118 49L123 50L128 38Q143 34 165 21Q184 10 202 0L205 2L209 11Q198 27 203 36Q207 45 224 49T245 62L247 68V79L269 125Q278 145 288 173Q297 184 305 203L300 205L293 195L280 201Q287 215 313 220Q322 240 352 271Q368 330 400 396L396 398L391 387L389
388Q400 424 431 485L409 489L408 492Q419 506 428 501L432 492L434 491L547 734L546 742Z" />
<glyph unicode="0" glyph-name="zero" horiz-adv-x="632" d="M83 800Q471 788 544 800Q553 800 553 789Q591 723 591 666L589 424L597 317Q594 268 580 268Q611 184 613 141L618 36Q611 18 580 18H553V7Q553 2 546 2L83 0L81 2V27Q67 57 66 90Q62 276 43 284L35
302L46 367L43 442H48L50 427H55Q65 553 63 610L59 798L61 800H83Q83 800 83 800ZM218 735Q221 726 224 726H226L231 731V740H224L218 735ZM318 659L316 424L325 317Q327 285 309 266Q340 171 340 154V145H417V187L426 201Q423 210 417 210V253Q417 258 426 259V266L421
271H419L417 268H414L396 302L408 367L405 442H410L412 427L417 431V659H318ZM153 621V612H155L160 617V619L153 621ZM403 451H408V447H403V451ZM186 375V369H193L198 373V380H191L186 375ZM285 378V373L292 371V373L287 378H285ZM296 373V371L302 378H300L296
373ZM222 324V317L226 313H229L233 317V324H229V326L222 324ZM421 299L423 293Q435 293 439 302L434 313L421 299ZM274 275V271L302 259L305 266Q302 275 294 279L274 275ZM173 273V271L177 266H182L186 271V277H177L173 273ZM209 217L215 210L222 217V219L218
223H215L209 217ZM289 187L287 185V181L292 177H294L298 181V185L289 187ZM461 179V172H466V170Q475 172 475 181L472 183H466L461 179ZM267 167Q267 163 287 156L294 161Q288 175 282 177H276L267 167ZM363 110V98H370L374 103V110H363ZM423 90L426 83H434L437
94L434 96H430L423 90ZM276 85L274 78L280 74L287 76V78L280 85H276ZM450 80L448 72L450 69H457L461 74V80H450ZM202 72Q211 68 211 58H213Q218 58 218 65Q213 75 209 76H206L202 72Z" />
<glyph unicode="1" glyph-name="one" horiz-adv-x="386" d="M46 812H302L306 807V774Q331 706 331 677L329 419H326L310 431Q295 426 295 413Q306 405 306 381L315 372H317L333 377V375Q337 355 337 325V316Q337 269 319 269L353 168L358 36Q358 18 315 18H306V4L302
0H127L122 4V24Q122 280 102 280L91 300L102 372L100 446H104L109 426H111Q120 521 120 657L118 659H46L42 663V807L46 812ZM279 760V756L286 749H290Q294 749 297 758Q295 764 288 767Q279 763 279 760ZM266 742V740Q273 717 279 717H284L295 719Q295 738 266
742ZM185 719L192 713H198L201 719L194 724H190L185 719ZM46 717V715H55V722H51L46 717ZM252 708L248 701V693L252 688H254Q267 688 270 697V699Q270 705 252 708ZM125 699L120 693L125 688H129V695L125 699ZM226 648Q230 634 236 632L248 646Q244 655 241 655H232L226
648ZM292 509L290 500L292 498H299L304 502V509H292ZM295 475L297 473H299L308 482H304Q295 479 295 475ZM226 426L232 417H234L239 421L236 428H230L228 426H226ZM279 401V399L284 395H286L292 401L288 406H284L279 401ZM284 377V375L286 372V370Q295 373 299
381H297L284 377ZM219 327L214 320L216 314H221L228 318Q226 325 219 327ZM219 267L221 260H228Q241 260 241 274L234 280H228Q221 280 221 267H219ZM208 163V161L212 157H214Q226 157 228 163V173L219 179Q208 176 208 163ZM160 87Q169 49 176 49H181Q190 49 196
63Q181 90 167 90L160 87ZM250 74V72L254 67L261 69L257 76L250 74ZM326 52V42H331L335 47L331 52H326Z" />
<glyph unicode="2" glyph-name="two" horiz-adv-x="579" d="M70 811L535 807V693L537 550Q549 525 549 514Q535 502 535 492V436L533 384L535 371L533 335L531 333H519L517 335H515L517 337V340L513 344H508Q503 344 503 333Q503 327 459 322L381 333H247V237L260
192L247 177V145H528L533 141V4L528 0H483L477 4L470 0H410L385 4L381 0H376L378 11V16L374 20H365L358 14L361 11V2L68 0L66 2V29Q43 42 43 54V87L48 94L43 98V116L66 172Q50 172 50 208V215Q50 219 57 219L59 221V226L52 235L55 250L43 402Q43 419 63 451V474L68
478H347Q352 478 354 494Q338 503 338 534L343 581L336 659H177L166 666L153 659H70L66 664V807L70 811ZM206 769V764Q208 757 220 757L224 764V769L218 775H213L206 769ZM193 753V749Q201 729 208 726H211L222 729Q222 747 193 753ZM282 753V744H285L289 749L285
753H282ZM115 731V726L119 722H124L128 726V731L119 735L115 731ZM175 711Q177 697 182 697Q194 697 198 706V708Q194 717 182 717L175 711ZM414 510L419 505H421L417 510H414ZM425 510V505H427L432 510H425ZM463 474V467L472 465L477 472V474L472 478H468L463
474ZM352 454V447H363V454L358 458H356L352 454ZM307 411L302 404L309 398L316 404V409L307 411ZM403 407Q416 393 427 393H434Q434 406 423 411L403 407ZM101 391L97 384V380H101V378L110 384V389L101 391ZM450 371L452 369L457 364V362L463 364V375H459V378L452
371H450ZM340 355L338 347L340 344H347L352 349V351L347 355H340ZM59 329V322H70V329L66 333H63L59 329ZM86 284V277H97V284L92 288H90L86 284ZM108 210V208L113 203H119L122 212L115 217L108 210ZM133 197V190L139 187L135 177L142 167Q153 167 157 177Q157 186
146 192Q146 201 142 201H137L133 197ZM410 121L419 114H427L430 123Q428 130 421 132Q415 132 410 121ZM95 107L97 101H104L108 105V110L104 114H101L95 107ZM488 110L486 101H493V105L488 110ZM320 103L327 94Q327 90 320 90L318 87V85L320 78H332L334 85L332
87L336 92Q331 106 325 107L320 103ZM399 107V105Q406 83 412 83H423L425 85H427Q422 105 407 105L399 107ZM180 83V78H182L188 80V87H184L180 83ZM385 74L381 67V58L385 54H387Q399 54 403 62V65Q403 71 385 74ZM258 65L253 58L258 54H262V60L258 65ZM191 40V34L195
29H198L204 38L198 42L191 40ZM399 20Q401 11 412 11L417 16V22Q417 28 407 29Q399 27 399 20Z" />
<glyph unicode="3" glyph-name="three" horiz-adv-x="559" d="M50 811L515 807V217Q527 160 528 136L531 29Q521 20 515 20V7L510 2H503L493 14H490L472 9L470 11V9L472 2H387Q378 17 340 34L323 29Q314 42 305 42Q295 39 291 31Q291 23 302 11V7Q302 0 251 0H50L45
4V141L50 145H334V264L325 281L331 333H294L282 349L262 355V351L267 337V335H260L193 333L188 337H186L180 333H150L146 337V474L150 478H331V480L334 659H170Q164 666 135 677L122 675H119Q108 686 99 686H97Q89 682 86 673L92 661L90 659H50L45 664V807L50 811ZM83
762V755H94V767H88L83 762ZM180 755V749H191V755L186 760H184L180 755ZM278 757V755L282 751H285V753L280 757H278ZM287 751H289L296 757H294L287 751ZM86 735V731H92L101 740H97L86 735ZM327 722V717L331 713H338L340 722L334 726H331L327 722ZM215 704V693H222L226
697V704H215ZM414 679Q417 670 421 670L432 679Q429 688 425 688L414 679ZM450 673L445 668L457 635L468 632Q475 642 475 650Q475 668 450 673ZM405 641L412 637L419 639V648H414V650Q407 649 405 641ZM367 590V583L371 579Q378 580 381 588L374 592L367 590ZM455
561V554L459 550Q465 551 468 559L461 563L455 561ZM417 469V467L421 462H427L430 474H425V476L417 469ZM195 451Q206 445 206 438L211 442Q205 456 202 456H200L195 451ZM274 371Q277 360 285 360L291 362V373L287 378H280L274 371ZM351 355L349 353V347H351L356
351L351 355ZM291 123L287 116V114L291 110H294L300 116V121L291 123ZM387 116L383 110V105L392 103L396 110V114L387 116ZM483 112V107H488V112H483ZM493 107H495L499 112H497L493 107ZM291 92V87H298L307 96H305L291 92ZM421 60L419 52L421 49H427L432 54V56L427
60H421ZM222 38L229 29L236 34L229 42L222 38ZM276 16V11L278 9V7Q288 10 289 16L282 20H280L276 16Z" />
<glyph unicode="4" glyph-name="four" horiz-adv-x="568" d="M48 811H220L225 807V477H319L323 610L319 800L332 805Q332 811 337 811H509L514 807V764Q534 699 534 677L532 428L536 383H534Q538 375 538 358V356H532V354Q532 350 538 350L541 347V345L534 338Q541
338 541 334L538 325L541 312H538L530 314L536 298H534Q527 298 527 294L536 289Q531 269 525 269H523V274H516V264H518L525 267V264L527 253H523L521 255H518V253L534 237L532 235L543 208V206H541V211H534V208L536 201L518 213V211L525 199L532 201V197H543Q551
197 556 168L561 36Q561 18 518 18H514V4L509 0H337L332 4V31L335 52L326 65Q322 278 308 278L294 300L299 332H225Q191 358 173 358L160 356Q157 364 142 370Q132 367 128 358V352L139 336L135 332H122L124 343V345H119V347L113 345V332H48L43 336V762L48 771L43
784V807L48 811ZM111 697Q113 688 124 688L128 692V704L119 706Q111 704 111 697ZM187 684V674H194V679L189 684H187ZM97 681Q108 656 113 656H122Q126 656 126 663Q121 681 97 681ZM79 636L86 628Q100 628 104 639Q94 648 86 648Q82 648 79 636ZM61 594L59 585Q64
571 68 571H70Q79 575 79 587V589L75 594H61ZM124 444V441L128 437H135L137 446L135 448H128L124 444ZM220 437V435L225 430H232L234 439L232 441H225L220 437ZM319 439L323 435H326V439H319ZM330 435V433L337 439H335L330 435ZM128 419V412H133L142 421H139L128
419ZM368 403V396L379 394L382 396V403L377 408H373L368 403ZM256 385V376H260V374Q270 378 270 381L263 388L256 385ZM530 376L527 374V372L530 370H534V372L530 376ZM455 363Q459 354 462 354Q472 358 473 363L469 372L455 363ZM59 363L61 356Q73 356 73 361L70
368H63L59 363ZM308 336Q315 326 337 320L341 325Q336 340 323 340Q318 336 308 336ZM530 334L527 332V330L530 327H534V330L530 334ZM449 327V320H460V332H453L449 327ZM357 305V294L366 292L371 298V300L366 305H357ZM527 287V285H532V287H527ZM523 282V278H527V282H523ZM411
274L409 264L411 262H417L422 267V269L417 274H411ZM453 269L444 258L451 251L462 258V260L453 269ZM321 244V240L330 237L332 240V244L328 249H326L321 244ZM496 240V233H505L509 237V240L505 244H500L496 240ZM523 240V235H527V240H523ZM516 231V222H521L523
229L521 231H516ZM437 229V224H435L437 217H444L449 222V229H437ZM525 224V222H530V224H525ZM545 206V199H541V201L545 206ZM516 195V186H521L523 195H516ZM534 193Q534 186 543 186H545V188L536 193H534ZM527 188L525 186V179Q525 175 534 175V170H538V175Q534
175 534 186L527 188ZM518 177V175L525 168V170L518 177ZM397 166V159H409V170H402L397 166ZM460 153V148L465 143H467L471 148V153L467 157H465L460 153ZM485 137V130H496L498 139L496 141H489L485 137ZM447 47L449 40H458L460 52L458 54H453L447 47ZM393 38V29H395L399
34L393 38Z" />
<glyph unicode="5" glyph-name="five" horiz-adv-x="574" d="M59 811H173L262 809L358 811H519L524 807V664L519 659H247L240 579L244 528L235 494V478H519L524 474V449L539 404V393L528 250Q532 238 532 197L524 170V159L539 116V47Q532 36 524 36V7Q524 2 517
2L132 0Q132 15 97 27L83 24H76Q76 36 61 36H54V141L59 145H343Q343 173 323 194L336 233V273H340V268H343V333H204L124 322L59 333Q54 333 52 355L48 362L52 424V472Q52 494 34 518L48 563V597H52V590H54V807L59 811ZM150 793V791H155L164 800H161Q150 797 150
793ZM394 787L389 780V778L394 773H398L403 778V785L394 787ZM278 760V757L282 753H289L291 762L289 764H282L278 760ZM476 737Q481 737 481 731L494 737V742L488 749L476 737ZM81 742L83 735H90L92 737H94L88 746H86L81 742ZM336 711V708Q336 702 358 699L360
701H363Q357 717 347 719Q337 715 336 711ZM470 708V701L474 697H476L483 706L476 711L470 708ZM74 583L81 576Q92 579 97 588Q94 599 90 599H83Q74 595 74 583ZM338 431V427Q340 420 351 420L356 427V431L349 438H345L338 431ZM325 416V411Q333 389 343 389L354
391Q354 410 325 416ZM414 416V407H418L421 413L418 416H414ZM247 393V389L251 384H255L260 389V393L251 398L247 393ZM106 389V387H115V396H112L106 389ZM307 373Q308 360 313 360Q329 363 329 369V371Q326 380 313 380L307 373ZM184 371L179 364L181 362H188V367L184
371ZM351 181V174L356 170Q363 172 365 179L358 183L351 181ZM448 174V167L452 163L458 165V174H454V177L448 174ZM354 152V147H360L367 154H365L354 152ZM483 116V110H494V121H488L483 116ZM287 101L289 90H293Q298 90 298 96L293 103L287 101ZM338 74L343 67L351
74V76L347 80H345L338 74ZM434 67L438 60Q448 64 448 67V69L443 74H441L434 67ZM343 49V45H349L358 54H356L343 49ZM472 18L470 9L472 7H479L483 11V14L479 18H472ZM54 7H59V2H54V7Z" />
<glyph unicode="6" glyph-name="six" horiz-adv-x="587" d="M81 811H531Q536 802 546 802V664L542 659H378Q378 674 367 679L363 675Q374 668 374 659H262V657L260 478H387L401 467L412 478H506V467H508L513 472L510 478H539L542 476H544L546 7Q546 2 539 2L79
0L77 2V27Q52 32 52 132Q52 272 23 299V302L35 367L32 442H37L39 427H43Q53 553 52 610L48 798L50 800H77Q77 811 81 811ZM173 802L175 795H182L186 800L184 807H180L173 802ZM448 789V780H452V778L459 780V785L455 789H448ZM427 771V769Q427 764 448 760H450L455
764Q454 770 441 780Q427 774 427 771ZM180 749V744L184 740Q196 740 200 749V755L193 762Q180 762 180 749ZM521 704L528 699L535 701V711H531V713Q523 711 521 704ZM434 681L439 677H443L448 681L443 686H439L434 681ZM166 646Q170 637 173 637Q188 638 188 650Q185
659 182 659H175Q168 659 168 646H166ZM122 570V566H119Q126 556 128 534L139 530Q153 530 155 548Q140 570 126 570H122ZM211 556V550H220V554L218 556V559L211 556ZM417 474Q425 449 439 449L445 451Q445 474 417 474ZM108 460Q114 452 117 431L119 429H128Q141
429 144 442Q144 450 119 467H113Q108 467 108 460ZM340 458L338 456V449L343 444H352V451Q352 456 340 458ZM198 449V447H206V456Q198 452 198 449ZM399 429L405 420Q413 420 423 429Q419 440 405 440Q400 440 399 429ZM274 427V422H282V427L278 431L274 427ZM305
418Q265 286 260 286H249L122 284L233 199V197L193 67H195L302 145H309L421 65V67L378 201L493 281V284H354Q347 284 314 400Q311 400 307 418H305ZM378 382Q378 374 387 364Q399 368 399 382L396 384L390 387V389Q378 386 378 382ZM528 154V152H535V154H528ZM524
145V139H528L531 145H524ZM533 143V136H535V143H533ZM526 127V125L531 121H533L526 127ZM528 112V110H535V112H528ZM524 103V96H528L531 103H524ZM533 101V94H535V101H533ZM524 85L528 74H535Q533 85 524 85ZM524 69V60H528L531 67L524 69ZM533 65V60H535V65H533ZM517
54V49Q523 49 531 42H533Q528 52 524 54H517ZM513 45L510 42L513 36L517 40L513 45ZM521 40V36H524V40H521ZM510 34V31H515V34H510ZM515 24V22L519 18V20L515 24ZM528 20L537 16V18L535 24H533L528 20Z" />
<glyph unicode="7" glyph-name="seven" horiz-adv-x="559" d="M46 811H185L192 807H196L214 811H507L512 807V762Q512 685 517 648L514 529V428L523 320L521 318L519 320L501 316Q493 330 481 330Q476 330 467 316L481 298L479 289Q482 274 487 274H492Q500 274
510 282H514L512 267V253L537 170L541 49L543 40Q543 24 512 18Q512 0 507 0H335L330 4V27Q319 27 306 72Q306 285 284 285L277 298V300L288 365L284 451H288L292 426H295Q304 496 304 589V659H46L42 663V807L46 811ZM373 744V742L387 726L389 728V730Q386 740
378 744H373ZM451 659V656L461 648Q469 651 469 654V661L465 666H458L451 659ZM438 641Q448 616 456 616L467 618Q467 641 438 641ZM360 621V618L366 612H373V618L366 625H364L360 621ZM420 601Q420 589 429 587Q443 592 443 596V601Q441 607 429 607H427L420 601ZM400
549Q400 537 409 533H411Q420 537 420 549Q420 554 409 556L400 549ZM465 406V401L469 396Q476 398 479 406L472 410H469L465 406ZM467 374H474L483 383H481Q467 378 467 374ZM400 325V323L405 316L413 320Q410 330 407 330H405L400 325ZM454 307L451 298L454 296H461L465
300V302L461 307H454ZM456 274V271H463L472 280H469Q456 278 456 274ZM389 222V219L393 215H396L400 219L398 226H393L389 222ZM393 163V161L402 159L413 163V175L407 181Q393 181 393 163ZM382 72V58H387V56Q402 60 402 65V72L396 78H389L382 72Z" />
<glyph unicode="8" glyph-name="eight" horiz-adv-x="574" d="M78 813H481Q483 813 489 791Q523 724 523 658L521 423Q517 416 465 381V378Q529 348 529 336V333Q529 317 534 297T539 274Q539 268 535 266L541 175Q535 16 527 16Q518 7 490 2H433L182 0V14H176Q172
14 172 0H52L48 4V36Q44 46 38 143L36 179L38 181L36 193V195Q36 196 33 200T31 204L33 206V208Q30 211 30 244Q28 254 34 269T41 292Q41 297 38 302Q42 358 62 358L98 378Q68 403 54 419Q66 522 64 614L60 799L62 802H74Q74 813 78 813ZM469 743L471 741L475 737V735Q489
737 489 748L483 757H476Q472 757 469 743ZM203 664L186 640L202 477L266 486L376 485L378 492L381 641L305 668L203 664ZM134 643L126 632L128 625H132L142 632Q138 642 134 643ZM483 468Q489 456 490 437L500 434Q510 434 514 448Q514 462 489 472H486L483 468ZM280
412V410L285 405H290L292 414L290 417H285L280 412ZM102 367V356H106V354L112 361H114L112 367H102ZM178 345V338L182 333H184L190 343L184 347L178 345ZM206 330Q196 305 181 183L186 158L201 162H222L348 139L382 130Q400 130 400 177L401 309L367 336L206 330ZM64
300V298L68 282H76Q76 294 66 300H64ZM94 267L90 260V257L94 253H102V264L94 267ZM138 233V222H144L148 226V233H138ZM481 170L476 163V161L481 157H486L489 168L481 170ZM126 125V123Q126 119 132 119L138 121V130H134V132L126 125Z" />
<glyph unicode="9" glyph-name="nine" horiz-adv-x="555" d="M48 811H177V807H173V800L177 795L184 798V800L182 811H292L298 807L305 811H307L314 807L318 811H508L513 807V731L515 635L513 528V422L521 324L513 268V241Q534 181 535 159L539 49L542 40Q536 18
513 18V7L508 2L45 0L43 2V141L48 145H302V212L309 215Q302 226 287 281Q283 281 276 299L280 333H110L97 340L90 333H48L43 337V465L48 472V478L43 485V807L48 811ZM414 805L407 795V787Q407 782 414 782Q427 782 427 795V798Q425 805 414 805ZM86 782V773H92L97
778L92 782H86ZM260 778V771L264 767Q272 769 274 775L267 780L260 778ZM264 742Q228 621 222 621H101L202 545L164 429H166L264 500L367 427V429L329 548Q368 576 378 576Q392 598 430 619V621H307Q302 621 267 742H264ZM222 686V684L226 679H233L236 691H231V693Q222
689 222 686ZM437 592L439 590H441L448 592V594L443 599L437 592ZM79 588V586Q83 576 90 576L97 579V590L92 594H86L79 588ZM68 572L66 570Q75 545 86 545L97 548Q92 570 70 570L68 572ZM157 572L155 570V563H157L162 568L157 572ZM50 532V518L59 516Q68 519 72
528Q69 536 57 536H55L50 532ZM289 329V324H294V329H289ZM298 324H300L305 329H302L298 324ZM336 293V291L343 284L349 286V297H340L336 293ZM434 261Q434 257 423 253L430 243L441 253Q437 261 434 261ZM417 217V215L421 210H427L430 219L427 221H421L417 217ZM325
194V183H334L338 187V190L332 197L325 194ZM378 163L376 154L378 152H385L390 156V163H378ZM412 150L417 141L430 150L423 159L412 150ZM289 134V130L298 127L300 130V134L296 139H294L289 134ZM463 130V127L468 123H472L477 127V134H468L463 130ZM271 121V114L294
110H296V116Q290 128 282 130Q272 125 271 121ZM405 118V114H403L405 107H412L417 112V118H405ZM365 60V54L369 49H372L378 58L376 60H365ZM427 42V38L432 34H434L439 38V47H432L427 42ZM278 36V27H289V31L285 36H278ZM452 31V24L457 20H459L465 27L461 31H452ZM206
29V24L215 11H222V14Q216 29 206 29Z" />
<glyph unicode=":" glyph-name="colon" horiz-adv-x="260" d="M76 371H146Q192 371 202 362L209 355L208 311V269L204 266Q201 266 181 330H180Q161 266 157 266H139V267L143 271L139 280Q129 274 129 266H92Q130 234 136 234V231L117 229Q52 231 52 245Q52 248
57 248V271Q57 281 43 287V288Q52 288 52 309L54 311H56L59 308Q68 322 68 329V351Q68 355 73 355V367L76 371ZM76 142L185 140Q193 140 209 124L208 80V40L204 37Q200 37 181 101H180Q161 37 157 37H90V35Q123 15 136 2V0H104Q52 0 52 16L57 17V45L43 58Q52 64
52 80L54 82H56L59 79H61L68 101V121Q68 124 73 124V138L76 142ZM83 121V115H92V124H87L83 121ZM131 108V107L134 103H139L141 112L139 114H136L131 108ZM150 98V96L153 93H159L160 100L159 101H153L150 98ZM80 21V16H82L85 19L83 21H80Z" />
<glyph unicode=";" glyph-name="semicolon" horiz-adv-x="262" d="M90 143H156Q214 143 214 132Q222 132 222 120V118H221L207 124L203 120Q208 111 210 96Q219 94 219 90L221 40L219 38H217Q213 38 194 103H193Q174 38 170 38H105Q145 7 149 7V3L130 1Q65 1 65
17Q70 24 70 29V43Q70 53 56 59V61L65 69V83H67L72 80Q81 96 81 104V124Q81 127 86 127V139L90 143ZM144 115V110L147 106L153 108V111L149 117L144 115ZM153 82Q147 75 147 69V66L154 64Q162 68 163 71V76Q161 82 153 82ZM215 -56L217 -58L163 -242H161L27 -247L25
-245V-243L77 -63L90 -60L215 -56ZM170 -81L172 -83H175L177 -81H179L177 -76H175L170 -81ZM161 -160V-161H168V-154H167L161 -160ZM109 -198L107 -200V-201Q112 -228 116 -228H126Q133 -225 133 -215Q120 -198 109 -198Z" />
<glyph unicode="&lt;" glyph-name="less" horiz-adv-x="523" />
<glyph unicode="=" glyph-name="equal" horiz-adv-x="540" d="M478 467V365L473 361H350V363L352 365V367L343 372L340 370H338L343 361H264L229 354Q225 361 212 361H184V363L186 369L184 370H176L179 361H63L58 365V462L70 471H96Q96 478 110 486H167L212 473Q212
478 236 482L291 480L405 486Q421 487 452 471H473L478 467ZM405 456H402V452H405V456ZM376 426H371V419H381V423L376 426ZM326 458H317L314 445L317 443Q328 446 328 452L326 458ZM317 378L312 374V370H321V374L317 378ZM274 402L267 400V395H276V398L274 400V402ZM257
452L255 454H250V449H253L257 452ZM106 458L98 456V450L103 447H106L110 450V454L106 458ZM94 465H91Q72 462 72 454L77 449Q94 453 94 465ZM94 411H86L91 408L94 410V411ZM62 126V232L67 236H192V233L190 232V230L200 224L202 226H204L200 236H279L315 243Q319
236 332 236H361V233L358 228L361 226H368L366 236H484L489 232V132L476 122H450Q450 115 436 107H378L332 121Q332 115 308 111L253 113L137 107Q120 106 89 122H67L62 126ZM137 138H139V142H137V138ZM166 168H171V176H161V172L166 168ZM216 136H226L229 149L226
151Q214 148 214 142L216 136ZM226 218L231 222V226H221V222L226 218ZM269 193L276 195V201H267V197L269 195V193ZM286 142L289 140H294V145H291L286 142ZM440 136L448 138V144L443 148H440L436 144V140L440 136ZM452 128H455Q474 132 474 140L469 145Q452 141
452 128ZM452 184H460L455 187L452 186V184Z" />
<glyph unicode="&gt;" glyph-name="greater" horiz-adv-x="523" />
<glyph unicode="?" glyph-name="question" horiz-adv-x="574" d="M356 816Q515 815 515 805L533 750L522 612L524 539L515 514V505L531 462V391Q515 378 515 368Q515 353 510 353H181L176 357V496L181 500H331V503Q331 511 312 541L324 580V616H329V612L349 623Q333
631 333 635V657L329 662H226V667H233Q233 687 206 691L204 689L217 664V662H140Q136 662 133 671L131 673H128Q128 664 42 662L40 664V805L44 809H351Q351 816 356 816ZM361 807Q364 798 367 798H372L374 809V812H367L361 807ZM138 789V787Q144 787 149 775H153V778Q148
792 142 794L138 789ZM217 707V703Q219 696 231 696L235 703V707L229 714H224L217 707ZM295 691V682H299L301 689L299 691H295ZM231 450V446L233 444V441Q243 444 244 450L238 455H235L231 450ZM329 444V437H340V444L335 448H333L329 444ZM429 446V444L433 439H435L429
446ZM438 439H440L444 444V446L438 439ZM233 423V418H240L249 427H247L233 423ZM476 407L479 400H490V410L486 414H483L476 407ZM365 391V380H372L376 384V391H365ZM210 187H247L358 184L385 164L383 114V52L378 48Q372 48 351 127L358 123H361V127L351 139H344Q322
48 315 48H231L288 7V4L283 0H260Q197 0 197 9L199 16H194L187 11H185L178 21Q185 21 187 77L174 82L178 96V107H181L187 102L199 132V161Q199 166 206 166V182L210 187Z" />
<glyph unicode="@" glyph-name="at" horiz-adv-x="624" d="M525 820L528 809H548L551 806H553L548 604Q548 506 558 416Q569 415 569 410L564 359L578 297Q550 265 548 159L546 56L528 12V-8L525 -10V-13Q99 3 84 7Q80 39 80 106Q211 85 211 79V72H218Q222 72
222 79L225 81H397L399 173L429 269Q410 289 413 327L422 432L420 722L94 705L82 694H80Q85 804 103 804L525 820ZM420 740L422 733H427L434 740V742L429 747H424Q420 747 420 740ZM305 637L312 632L319 637H342L346 632V618L353 586V584L346 487L348 471L346 441L348
375H346L348 373V370Q348 315 337 315L344 306V274L342 267L344 256V182L339 177Q339 187 330 187L323 177H287L280 182H278L271 177H261L259 180L257 177H234L80 175Q80 187 71 187Q57 201 57 210L62 256V267L55 292Q62 314 62 331Q72 331 75 444L78 446H181L243
448V549H204L197 554L183 549H82L78 554Q78 559 84 559V561L80 568V618L78 634L80 637H305ZM183 628L190 621H192L185 628H183ZM496 621V616H502V618L500 625L496 621ZM229 584V579L234 575L238 579L234 584H229ZM142 577V570H149V573L144 577H142ZM271 570V568H275V570H271ZM176
561V559L181 554H183V556L179 561H176ZM96 559V556H101V559H96ZM291 434V430H296V434H291ZM213 428L199 386Q192 354 185 354H110L174 304L151 230Q210 274 218 274L278 230H280Q257 294 257 306V308Q318 347 319 352H243Q238 352 236 364L238 366L234 370V375L236
377V379Q230 379 215 428H213ZM388 423L392 419L388 414L383 419L388 423ZM238 393V391L241 379Q259 381 259 386Q252 392 238 393ZM112 375L117 370H121V379H117L112 375ZM463 377Q463 368 456 368V366H463L468 370L465 377H463ZM445 375V370H450V375H445ZM87
317L82 313Q86 304 89 304L94 311V315L87 317ZM441 260V256L447 253Q465 259 465 265V267Q463 274 452 274L441 260ZM475 271L470 260H475L479 265V267L475 271ZM190 251L188 242L190 240H192L199 242V251H190ZM121 235L119 233V228H126V230L121 235ZM174 230V228L179
223L181 226V230H174ZM121 216V214H126V216H121ZM429 212L431 210L436 205V203L443 205V212L438 216H436L429 212ZM259 212V205H264V212H259ZM293 205L296 203V201L293 189H296L300 194L298 205H293ZM194 198V194H197L201 198H194ZM213 194V191H218V194H213ZM84
189L82 187V184L84 182H87L89 184V187L87 189H84ZM307 187L312 182L316 187V189H314L307 187ZM447 173L452 168H454L459 173V175L454 180L447 173ZM452 152L459 148L479 155V164L470 168Q456 168 452 152ZM365 69V67L369 62L376 65V69L371 74H369L365 69ZM183 65V62L188
58H197V65L192 69H188L183 65ZM441 65L434 49H436L438 47H441L450 62V65H441Z" />
<glyph unicode="A" glyph-name="A" horiz-adv-x="611" d="M575 212L564 182V155H560Q559 159 555 162Q543 124 548 4L544 0H497L492 4H494L492 11H481Q481 0 476 0H328L323 4V101Q323 104 324 109T326 117Q326 120 325 127T323 137V290H279V4L274 0H58Q54 0 51
27Q34 44 36 61Q45 167 45 167Q45 171 43 181T40 196Q40 211 54 225V229L36 259V312Q36 332 44 373T54 430Q54 430 54 463Q54 466 49 476T45 490Q55 521 54 524Q48 526 45 533Q54 566 54 623Q54 628 49 641T45 661Q56 730 54 758L105 809H478Q478 803 483 803Q490
803 490 809H492Q548 760 548 744V499Q550 480 555 442Q564 351 564 308L560 304Q557 250 557 250Q557 229 575 212ZM533 760V762H528V760H533ZM539 749V753L535 758V753L539 749ZM481 778V782L476 787L474 785V778H481ZM515 719V726H510L505 722V719H515ZM440
771V778H434V771H440ZM515 699V701L505 711L497 704Q497 698 512 697L515 699ZM465 737V742H463L458 737V733H460L465 737ZM454 740V746H447V740H454ZM510 641V645H503V641H510ZM490 663V666H481V659H485L490 663ZM377 764H375L371 760H373L377 764ZM393 722V729H391L387
724L389 722H393ZM438 580V585H436V580H438ZM456 560Q451 571 447 571H445V569L454 560H456ZM510 506V513L505 517H503L499 513L505 506H510ZM510 486Q505 501 490 501V499Q490 493 501 483L510 486ZM339 643V645L330 654V652L335 643H339ZM492 470V474L481 477Q480
477 478 477V465H488L492 470ZM445 481V483L438 490L436 488V486L440 481H445ZM476 438V441H467L463 436L470 427H474L476 438ZM465 411V420H463L458 416L463 411H465ZM490 375V382H483V375H490ZM440 598Q393 598 389 601Q385 599 380 598H335Q329 598 328 614L332
618V623Q322 628 299 701H297Q282 652 260 598H155L240 533V531L211 432H213L294 490H301L387 430V432Q387 434 374 470T359 517H362L355 528V533L440 598ZM395 465V470H391V465H395ZM474 362L470 367L463 360L465 358V355L474 362ZM400 420L395 425L393 423V416H395L400
420ZM535 281V285H528V281H535ZM402 405H395V400H398L402 405ZM458 346V348H450V346L454 342L458 346ZM530 267V272L523 281L515 274Q517 267 528 267H530ZM465 333V340H460L456 335L458 333H465ZM411 385V391H402V385H411ZM483 308L478 312L474 308L478 304L483
308ZM373 411V414H368V411H373ZM499 277L494 281L490 277V272H494L499 277ZM508 267L503 272L499 267L503 263L508 267ZM510 252H503V247H505L510 252ZM472 283L470 285H463V283L467 279L472 283ZM393 351L387 355L384 353V346H389L393 351ZM526 212V216H519V212H526ZM438
297L434 301L431 299V292H434L438 297ZM395 335H391L387 330H391L395 335ZM310 414L307 416H305L301 411L305 407L310 414ZM355 362V369H348V362H355ZM382 335V337Q382 346 373 346Q373 346 366 344V340Q366 335 380 333L382 335ZM335 375L332 378H326V371H330L335
375ZM535 146V157H528L523 153L530 146H535ZM478 200V205Q472 212 472 220H465Q465 216 456 216V209H458L465 214L478 200ZM535 126Q530 142 515 142V139Q518 130 523 126H535ZM245 418L242 420H236V414H240L245 418ZM377 277V279L373 283L371 281V277H377ZM472
173V184H467V187Q458 184 458 173L465 171L472 173ZM245 400H238V396H240L245 400ZM346 292V299H344L339 295L342 292H346ZM517 108V112L510 119L503 117V106H505L517 108ZM357 256V263L352 267H348L344 263V254H346L357 256ZM528 81L526 88H521L515 81L521 76H523L528
81ZM472 130Q467 141 463 142V139L465 130L460 126L465 122H470L472 130ZM526 59Q526 68 505 72Q509 63 519 54L526 59ZM501 79V81H492L488 76Q490 70 494 67H499L501 79ZM465 108L463 115H456L452 110V101H458L465 108ZM537 22V25L533 29V22H537ZM422 133V137H418V133H422ZM510
43L503 47H499L494 43V36H499V34Q509 38 510 43ZM348 189V193L344 198H342L335 191V184H344L348 189ZM422 108V110L420 112H418L415 110V108L418 106H420L422 108ZM485 41V45H481V41H485ZM380 146L377 153H371L366 149L373 142L380 146ZM460 52V59H452V56L456 52H460ZM377
122V124Q377 134 357 137L364 122H377ZM443 36Q434 54 420 54L418 52Q424 27 431 27L443 36ZM359 104V108Q359 113 348 115L346 112V106Q346 101 352 101Q352 101 359 104ZM413 36V41H409V36H413ZM362 56V59L357 54V52L362 56ZM344 74V76L335 79L330 74L335 63H342L344
74ZM265 101V104L260 108L258 106V104L260 101H265ZM213 119V124H209V119H213Z" />
<glyph unicode="B" glyph-name="B" horiz-adv-x="594" d="M68 809H473Q557 729 558 722V481L477 400L558 317V81L477 0H444L439 4L378 0V4L363 2H306L66 0Q65 19 45 47L43 56V61L52 167L48 196Q48 211 61 225V229L43 259V312L63 443V458L52 488V490L61 517V524Q52
524 52 533L61 566V623Q52 648 52 661L63 724V805L68 809ZM304 663Q282 585 275 585H194L261 531L236 452L306 501L371 454H374V456L349 533L419 582V585H336Q331 585 306 663H304ZM459 456L457 454V448H464V452L459 456ZM430 416V409H437V416H430ZM369 398V396L374
391H376V398H369ZM304 391Q281 310 275 310H196L261 259L236 180L306 227L371 182L369 171V169H376V171L367 209L371 214V218H369L367 216H365L349 261L417 310H336Q331 310 306 391H304ZM185 369L187 367H194L198 371V375L194 380H192Q187 380 185 369ZM169 337V330H176V337H169ZM464
335V328H468L473 333V335H464ZM234 333V326H239L243 330L241 333H234ZM383 333V326H387L392 330V333H383ZM171 317V315H178L181 317V319H178L171 317ZM407 295V288H412L417 292V295H407ZM396 277L401 272L407 281L405 283H403L396 277ZM367 265V263L371 259H374L378
263L376 270H371L367 265ZM389 252L392 250H399V256H394L389 252ZM419 254V250H421V254H419ZM208 236V234H212V240L208 236ZM201 200L203 198H210V205H205L201 200ZM452 200V198L457 193H459V196L455 200H452ZM336 198L331 187Q334 177 338 177L344 187L340 198H336ZM423
198V191H428L432 196L430 198H423ZM203 184V182H210L212 184V187H210L203 184ZM273 182L268 175V171L273 167L281 173V180L273 182ZM295 164L293 162V155H299V160L295 164ZM434 153L430 146V142H434L441 149L434 153ZM158 151V144H165V146L160 151H158ZM396 133L399
130H405V137H401L396 133ZM79 133L77 130V124H84V128L79 133ZM331 126Q333 119 344 119L347 122H349Q346 130 342 130H336L331 126ZM396 126L394 124V122L403 115H405Q401 125 396 126ZM423 122L428 117L432 122L428 126L423 122ZM246 124L255 115H257Q253 124
250 124H246ZM376 94V85H378L383 90V94H376ZM441 85L446 81L448 83V90H446L441 85ZM396 81V79H401L405 83L403 85H401L396 81ZM378 74V69H381L385 74H378ZM50 67L55 63L59 67V72H55L50 67ZM299 69V65L304 61H311V67L306 72L299 69ZM448 67Q450 59 462 59H464V63L455
72L448 67ZM336 63L342 61L344 63V65L342 67H340L336 63ZM351 56V49L356 54L354 56H351ZM500 52V49H504V56L500 52ZM291 54Q296 39 302 38H311V41Q308 54 291 54ZM441 54V52Q441 43 450 38H459V41Q456 54 441 54ZM466 52V45H473V52H466ZM79 49Q84 25 88 25H97L102
29V36Q94 49 81 49H79ZM153 45V36H165L167 43L165 49H158L153 45ZM228 49V45L234 25H246L250 29V36Q242 49 230 49H228ZM385 43V41L392 34H394V38L389 43H385ZM142 41V36H147V41H142ZM291 41V36H295V41H291ZM331 38V31H338V38H331ZM281 31L279 29V22L284 18H286L293
25V29L281 31ZM430 31L428 29V27Q428 15 437 11L441 16V29L430 31ZM192 25V22L196 18L198 20V22L196 25H192ZM340 20L342 18H344L347 20V25H344L340 20ZM369 25L367 22V16H374V20L369 25Z" />
<glyph unicode="C" glyph-name="C" horiz-adv-x="600" d="M111 809H504L558 756V566L554 562H385L381 566V607H309Q288 595 288 573V558Q288 527 295 513L288 391V205H381V243L385 247H554L558 243V54L504 0H102L63 38V63Q43 87 43 99V101L52 200L48 229Q52 254
59 254H73L75 252Q81 253 84 261Q84 271 61 274V267H59Q43 281 43 295V342Q43 358 63 458V477L52 506L63 535L52 544V546L63 582V627Q52 656 52 666L63 722V762L111 809ZM156 614V607H160L165 611L163 614H156ZM93 598V596H100L102 598V601H100L93 598ZM257 587L261
582H266V587L261 591L257 587ZM181 576V569H185L189 573L187 576H181ZM221 540V535L232 533H236V538L230 544H226L221 540ZM226 481V479L230 474H232V477L228 481H226ZM167 405L176 396H178L171 405H167ZM221 348Q222 342 230 340L234 344Q231 353 228 353L221
348ZM273 333V330H277V337L273 333ZM212 335Q218 320 223 319H232V322Q229 335 212 335ZM90 333V326H97V333H90ZM158 330V328H163V330H158ZM165 330V328H169V330H165ZM158 324V317L167 315V319L163 324H158ZM63 322V317H68V322H63ZM192 310V301L208 299L214 301V310L208
312L192 310ZM113 301L115 299H118L120 301V306H118L113 301ZM115 295V288H122V295H115ZM250 277L252 274H257L261 279V283H259Q250 280 250 277ZM185 272Q189 262 194 261L198 267V272L194 277H192L185 272ZM153 256L167 252H171V254Q168 263 165 263H160L153
256ZM246 256V254L250 250L255 254V256H246ZM219 214L223 209L228 216L226 218H223L219 214ZM426 216V214L430 209H432V216H426ZM158 196L160 193H163L167 198L165 200H163L158 196ZM279 198V191H286V198H279ZM430 180V175L434 171L444 177V180L437 187L430 180ZM230
175V173L234 169L239 173L236 175V177L230 175ZM299 173L295 167L297 164H299L304 169L299 173ZM365 171V167H367V171H365ZM232 153H236L241 157H236L232 153ZM399 149V144L403 139L405 142V149H399ZM252 133L255 130H261V137H257L252 133ZM322 135V126H324L329
130L324 135H322ZM102 124L111 115V117L108 124H102ZM464 124L459 117V112H462L468 119L464 124ZM187 122V115H194V117L189 122H187ZM423 115L421 104V101H423L434 104V115H423ZM221 101L223 99H230V106H226L221 101ZM358 99V97L376 90L378 92L369 104L358 99ZM288
101V94H295V101H288ZM452 92L457 88L462 94L459 97H457L452 92ZM226 83H228L232 88H230L226 83ZM389 79V69H394L399 74L394 79H389ZM156 69V65L160 61H167V67L163 72L156 69ZM315 65L313 63V56H320V61L315 65ZM147 56V54Q153 39 158 38H165V45Q165 50 147 56ZM208
56V52H212L208 56ZM426 56V49H430L434 54L432 56H426ZM389 54V52Q393 33 401 27Q412 29 412 38Q412 45 396 54H389ZM178 47V45H185V52H183L178 47ZM450 49V41H452L462 49L459 52H457L450 49ZM259 41V34H268L273 38V43L268 47H266L259 41ZM93 43V38L97 34L102 38L97
43H93ZM365 38V34H374L369 38H365ZM484 31L486 29H493V36H489L484 31ZM135 31V27H133L140 18Q149 21 149 25L142 31H135ZM351 25L369 20V22Q366 31 363 31H358L351 25ZM444 25V22L448 18L452 22L450 25V27L444 25ZM181 9L183 7H189L196 14L194 20H187Q183 20 181
9Z" />
<glyph unicode="D" glyph-name="D" horiz-adv-x="574" d="M46 809H484Q508 788 536 753V701H527V695H536V587L534 578L536 569V499L548 333L541 326V270Q541 253 559 236L548 207V177H543L541 187H538L536 171V49L487 0L42 4V805L46 809ZM370 774L372 771H379V778H374L370
774ZM307 762V760H313L316 762V764H313L307 762ZM471 751L476 746H480V756H476L471 751ZM395 735L397 733H403V740H399L395 735ZM260 726L262 719L269 722V724L264 729L262 726H260ZM435 704V699L451 697V701L444 708H440L435 704ZM500 663V659L505 654L507 656V663H500ZM440
641L442 639H446V645H444L440 641ZM266 607V205H340V607H266ZM383 571V569L388 560H392V562L383 571ZM437 515V510L442 506H444L448 510L444 517L437 515ZM489 501V495H491V501H489ZM428 497Q434 483 437 483H446Q446 499 428 499V497ZM372 483L379 479H381V483L377
488L372 483ZM417 477L415 474V468Q415 463 421 463Q431 466 431 470Q428 477 417 477ZM401 436V432L408 425H410Q411 434 415 434L413 441H406L401 436ZM448 342L444 335L446 333H448L453 337L448 342ZM514 337L511 335V328H518V333L514 337ZM448 317H451L455
322H453L448 317ZM401 285V279H408V285H401ZM437 270V263H444V270H437ZM503 265V259H507L511 263V265H503ZM440 250V247H446L448 250V252H446L440 250ZM529 229L527 227V225L531 220L536 225V227L529 229ZM392 212L397 207L399 209V216H397L392 212ZM397 180V171H399L410
173V180L406 184H401L397 180ZM224 169Q224 142 237 142L246 149V153Q236 169 224 169ZM523 128V126L531 117V122L525 128H523ZM388 108V101H397L401 106V110L397 115H395L388 108ZM464 67L466 65H473V72H469L464 67ZM516 59L514 56V54L518 49L514 43L518 38H523L525
47Q521 58 516 59ZM300 49V41H307L313 47L311 54H305L300 49ZM358 54L356 52V47L363 27H372L379 34V38Q368 54 358 54ZM419 45L417 43V41H424L419 45ZM469 27V22H471L476 27H469Z" />
<glyph unicode="E" glyph-name="E" horiz-adv-x="600" d="M71 809L562 805V589L557 585H292V493H537L541 488V342L537 337H292V283H289L278 288L271 277Q278 267 280 250L287 247L289 250L292 247V227H346L352 222H357L364 227H557L562 222V4L557 0H406L399 4H395L388
0H71Q67 0 65 18Q44 35 40 56V63L49 169L44 200Q44 219 60 229Q40 263 40 270V319L62 470L60 472V474L62 477V479L49 495V501L60 533Q49 537 49 544Q49 565 67 585V629Q49 649 49 672Q49 687 67 758V805L71 809ZM128 782V776H132L136 780L134 782V785L128 782ZM197
780L193 774L195 771H201V776L197 780ZM262 778V774H264V778H262ZM130 760H134L139 764H134L130 760ZM294 751L301 746L303 749V756H299L294 751ZM217 740L220 733H222L226 737L222 742L220 740H217ZM415 737V735H422V737H415ZM424 737V735H429V737H424ZM404 733V731H409V733H404ZM361
731L354 722L357 719H359L366 726L361 731ZM83 724L85 722H91V724L87 729L83 724ZM130 717Q136 717 141 690H143Q164 699 186 701V711Q186 716 161 722L152 719L143 729Q130 729 130 717ZM415 722Q424 704 429 704V708L427 711V713L429 722V726H427Q415 726 415
722ZM258 704Q258 698 274 697L276 699L267 711Q258 707 258 704ZM350 699L354 695L357 697V704H354L350 699ZM404 704V701H409V704H404ZM417 692V688H420V692H417ZM406 690L409 684L413 688L411 690H406ZM415 686V681H417V686H415ZM424 681H429V686L424 681ZM411
677V670L415 666V672L411 677ZM406 668V663H409V668H406ZM417 668V663H420V668H417ZM323 663V656H330V663H323ZM262 645V641H269V645H262ZM382 639L384 636H391V643H386L382 639ZM78 616L80 614H87L94 621L91 627H85Q80 627 78 616ZM206 571V569L215 560V562Q212
571 208 571H206ZM260 513V510L264 506H267L271 510V513L267 517H264L260 513ZM251 501V497Q254 488 262 483L269 488Q269 496 251 501ZM101 483H105V488L101 483ZM197 488V481H201L206 486L204 488H197ZM238 472V470L242 463L253 468V470L247 477H242L238 472ZM152
470V465H157V470H152ZM224 441V438L226 427H231Q236 427 238 438L236 441H224ZM269 342V335H276V342H269ZM271 322V317H274L278 322H271ZM224 285V283L229 279L231 281V285H224ZM260 267L264 263L269 270L267 272H264L260 267ZM262 247H264L269 252H267L262 247ZM462
220V218L467 214L472 218L469 220V222L462 220ZM494 218Q494 214 487 214V212L492 207L498 214L494 218ZM215 212L217 209H220L224 214L222 216H220L215 212ZM406 205L404 202V198H411V200L406 205ZM525 202L523 200V193H525L530 198L525 202ZM391 191Q391 187
404 184L406 187V189Q403 198 399 198H397L391 191ZM483 191V184H490V191H483ZM220 180V175L224 171H226L233 177V180L226 187L220 180ZM456 151V144H462V151H456ZM498 142V133H501L505 137V142H498ZM397 135L395 133V128H402V130L397 135ZM514 130V124H519L523
128V130H514ZM346 128L352 117H354V122L352 128H346ZM213 115L211 104L213 101H220L224 106V115H213ZM399 69L406 63L411 67V74H404L399 69ZM490 67V63H496L498 69L496 72H494L490 67ZM337 59L341 52L337 45V43L341 38H346L348 49Q344 59 341 59H337ZM391 59L397
43H411Q411 57 391 59ZM451 59V54L456 59H451ZM179 54Q183 27 193 27L201 34V41Q201 45 186 54H179ZM242 45V41H247V45H242ZM382 36L379 34V22H382L393 25V29Q393 35 382 36ZM294 29L292 27V25L294 22H296L299 25V27L296 29H294Z" />
<glyph unicode="F" glyph-name="F" horiz-adv-x="598" d="M72 810L562 808V797L551 799L544 797Q553 778 560 778H562V758Q553 758 553 754L562 752L565 587L562 585H295V452Q295 448 301 448Q310 448 310 459L326 461H565L569 457V288L565 284H295V4L290 0H72Q67
0 67 11Q36 32 38 56L47 164L42 196Q42 215 58 225Q38 259 38 266V319L60 466Q47 487 47 495V497L58 529Q47 534 47 540Q47 563 67 583V623Q47 644 47 668Q47 687 67 760V805L72 810ZM535 805V801H538V805H535ZM558 790H562V783H558V790ZM535 778V772H538V778H535ZM184
767V760H189L193 765L191 767H184ZM549 765V760H551V765H549ZM250 763V756H254L259 760V763H250ZM538 763L540 756L542 758H544L547 756H551V758L538 763ZM547 752V749H551V752H547ZM187 747V745H193L195 747V749H193L187 747ZM542 747V743L547 738H551L547 747H542ZM351
736L355 731H360V736L355 740L351 736ZM538 740V736H540V740H538ZM274 725V718H279L283 722V725H274ZM139 709L142 707V704L148 707L146 713H144L139 709ZM193 713L187 704V702Q194 695 195 677L198 675H207Q211 682 236 682L243 688V693Q243 698 220 707L207 704Q202
713 193 713ZM412 709L414 702L423 707V709L418 713L412 709ZM315 688V684L326 682H330V686L324 693H319L315 688ZM409 688L407 686V680H414V684L409 688ZM380 648V643L385 639L387 641V648H380ZM319 630V628L324 623H326V630H319ZM438 623L441 621V619L448 621V623L443
628L438 623ZM135 598L137 596H139Q148 600 148 603V608L144 612H142Q135 610 135 598ZM263 556L261 553V551L270 545H272Q267 555 263 556ZM94 479V477Q101 455 103 455H112L117 459V466Q109 479 97 479H94ZM157 468V466H162V472L157 468ZM252 472V470L259 464H261V468L256
472H252ZM209 455V448L214 452V455H209ZM281 421V416L288 410L295 421L288 425H285L281 421ZM281 270V263H288V270H281ZM272 196V194H279V200H277L272 196ZM277 164V155H283L290 162L288 169H281L277 164ZM270 99L267 88V86H277L281 90V94L277 99H270ZM238 38L236
36V34Q240 11 245 11H252Q259 14 259 25Q244 38 238 38Z" />
<glyph unicode="G" glyph-name="G" horiz-adv-x="600" d="M107 810H501L555 756V643Q555 639 544 639V637Q555 637 555 632V630H553L550 632H548Q548 625 542 625Q555 607 555 598L553 596V594L555 587L550 583Q555 583 555 576L550 562L530 565L352 562L350 565V608H294Q289
608 289 614H287L283 610L285 486L281 482L285 468L283 465H281L271 468V465Q274 458 285 448V243L281 236V234L285 227L283 207L285 205H371V277H332L328 281V421L332 425H548L550 423H553L555 54L501 0H427L409 2L384 0H226Q212 22 202 22L199 20V18L204 4L199
0H96Q56 35 56 47Q50 47 40 79V81L49 191L44 220Q46 247 58 247V250L40 288V344Q40 366 58 455H62Q62 440 71 437Q83 439 83 448Q83 455 58 468V495L49 520V522L58 553L49 567L58 601V659L49 693L58 751V760L107 810ZM148 747V745H157V751H152L148 747ZM215 747V740H222V747H215ZM289
745V743H294V745H289ZM152 731V729H157V731H152ZM319 724L316 722V715H323V720L319 724ZM240 708V702H247V708H240ZM107 698L105 695V688H107L112 693L107 698ZM150 688Q159 678 159 661L161 659H170Q176 666 206 668V682L184 691L175 688L161 698L150 688ZM375
691L377 688H382L386 693V698H384Q375 694 375 691ZM278 675V668L294 666H296V668L292 677H289L278 675ZM371 670V663H375L379 668V670H371ZM532 635V630L537 635H532ZM344 628L348 623L352 630L350 632H348L344 628ZM535 623V618H537V623H535ZM404 612V605H411V612H404ZM101
594V585L105 580Q114 583 114 592L107 596L101 594ZM532 594L537 585L539 587H542L544 585H548V587L535 594H532ZM546 594V590H548V594H546ZM539 578V571L544 567V574L539 578ZM226 538L231 529H236V531L229 538H226ZM218 457V452L222 448L226 452V455L218 457ZM121
455V450H125V455H121ZM260 445L258 439L260 432H267L274 439Q271 445 260 445ZM173 439V437L177 432V439H173ZM244 403Q248 394 251 394Q258 396 258 407L256 410H249Q244 410 244 403ZM355 304V297H359L364 302V304H355ZM431 304V299H434V304H431ZM456 281V277L461
272L465 277V281H456ZM379 263L384 259L389 265L386 268H384L379 263ZM517 252V250L521 245L528 250L526 257L517 252ZM244 250V247H251V254H249L244 250ZM416 232V229L436 223V227L427 236L416 232ZM512 229V225L517 220L519 223V229H512ZM447 207L451 202H456V212H451L447
207ZM371 191L373 189H375L379 194V196H375L371 191ZM483 184L485 182H492V189H487L483 184ZM514 187L508 178L510 175H512L519 178V182L514 187ZM236 182L238 175L244 178V180L240 184L238 182H236ZM424 171V167H431V171H424ZM544 169V162H550V169H544ZM411 160V155L427
153L424 164H416L411 160ZM505 160L503 157V151H510V155L505 160ZM242 153L240 142V139H249L253 144V149L249 153H242ZM476 119V112H483V119H476ZM521 110L519 108V101H526V106L521 110ZM416 97L418 94H420L424 99L422 101H420L416 97ZM535 94V92H544V99H539L535
94ZM368 97V94L373 86H377Q373 96 368 97ZM231 72L233 70H244V74H247Q243 83 240 83H238Q233 83 231 72ZM420 38L427 31H431V36H434L431 43H424L420 38ZM510 38V31H514L519 36V38H510ZM359 27V25L361 16L357 11L361 7H366L368 20L359 27ZM411 27Q419 9 424 9L431
11Q427 27 411 27ZM472 27V22H476V27H472ZM263 14V7L267 11V14H263Z" />
<glyph unicode="H" glyph-name="H" horiz-adv-x="609" d="M64 811H258L262 807V739Q262 733 253 733V730H262V701Q262 696 256 696L253 694V692Q262 670 262 644V498H366V807L371 811H546L549 809L551 811H555V807H560V811L562 809H564L562 800L560 802H555V800H560V795L553
793L560 782L558 780V778L562 773L560 771L564 757Q563 748 558 748V746Q564 746 564 719V552Q578 419 582 318Q576 318 576 288V259Q576 232 591 219L582 187V156H578Q578 164 573 164Q564 120 564 88V4L560 0H526L510 2L490 0H371L368 2H366L368 14V45L366 293H262V4L258
0H64Q59 0 57 18Q43 37 42 52V54L51 169L46 205Q46 219 59 232Q42 266 42 273V329L59 464V480L51 511V514L59 545L51 554V566L59 597V651L51 683V698L59 759V807L64 811ZM537 795L542 791H546V800H542L537 795ZM544 775V773H549V775H544ZM546 759L551 755H553L549
759H546ZM251 753V746H258V753H251ZM544 750V748H549V750H544ZM384 746V743H389V746H384ZM391 746V743H395V746H391ZM551 746V739L555 735H558L555 746H551ZM418 721V716H422L427 721L422 726L418 721ZM208 698L206 696V694L211 690L213 692V694L208 698ZM479 692L483
687Q483 692 490 692V694L486 698L479 692ZM379 671L393 667H398V669L391 678H386L379 671ZM472 667L474 665H476L481 669V671H476L472 667ZM445 628L449 624L454 628L449 633L445 628ZM386 615V608H389L393 613L391 615H386ZM506 613V608L510 604L515 611L513
613H506ZM206 597L201 590V586L206 581L215 588V595L206 597ZM515 588L517 581Q525 581 531 588Q527 597 524 597Q517 597 517 588H515ZM479 548L486 543L488 545V552H483L479 548ZM382 484V480L391 473L393 476V484H382ZM434 471V464L438 469L436 471H434ZM373
469Q378 454 384 453H393Q393 467 373 469ZM161 464Q166 437 174 437Q184 441 184 444V451Q184 455 168 464H161ZM474 462Q481 437 488 437Q498 441 499 446V448L483 464H479L476 462H474ZM319 458V451L326 448L328 451V453L323 458H319ZM222 455L226 451H229V455H222ZM537
455V451H542V455H537ZM361 441V437L366 433H368L375 439L368 446H366L361 441ZM274 439V437L278 433L280 435V437L278 439H274ZM346 406Q349 394 352 394L359 401V406L355 410H352L346 406ZM391 309V302H395L400 306V309H391ZM456 300L458 298H461L465 302V304H461L456
300ZM393 286H398L402 291H398L393 286ZM558 279L560 273H562L566 277V281H562L560 279H558ZM481 264L486 259L490 264L486 268L481 264ZM393 246L402 232L400 230V228Q403 216 406 216Q433 228 456 228V234Q433 248 422 248L416 246L406 255Q395 255 393 246ZM382
234L384 232H391V239H386L382 234ZM517 232V230L537 223L539 226V228L531 236L517 232ZM384 219V216H391L393 219V221H391L384 219ZM551 212V203H558L560 209L558 212H551ZM476 198L474 196V189H481V194L476 198ZM526 171V167H533V171H526ZM513 158L526 153H531V156Q527
164 524 164H519L513 158ZM517 97L524 95L526 97V99L524 101H521L517 97ZM470 97V95L474 86H479V88Q475 97 472 97H470ZM524 38V36L528 31H531L535 36V38L531 43H528L524 38ZM461 27V25L465 18L458 9L461 7H465L467 9H470L467 11V14L470 16V18Q468 25 461 27ZM515
27V23Q519 10 526 9L533 14Q533 21 515 27Z" />
<glyph unicode="I" glyph-name="I" horiz-adv-x="308" d="M44 809H56V805H60V809H262L267 805V470L278 322L271 312V252Q271 238 294 220Q278 194 278 187V162H274L271 171H269L267 160V4L262 0H118L98 2L82 0H46L42 4V36Q28 52 28 61V65L40 171L35 207Q35 218
51 232Q42 232 40 256L28 270V324Q28 342 42 407V501L40 513L42 526V621L46 627L42 634V663L40 679L42 699V744H46V749L42 756V769H46V774L42 780V798H46L44 809ZM62 803H69L64 807L62 805V803ZM53 789Q62 780 62 774H64L69 778H64V780L69 787V789L62 796Q53 792
53 789ZM56 778V776H60V778H56ZM56 760V756H60V760H56ZM51 742V735L56 740V742H51ZM56 735V733H60V735H56ZM78 699L71 692L73 686Q82 689 82 692V695L78 699ZM66 670V663H73V670H66ZM98 607L103 603L107 607V611H103L98 607ZM73 546L78 542L82 549V551H78L73 546ZM51
304V297H58V304H51ZM152 281V277L156 272L161 277L156 281H152ZM78 267L76 265V259H78L82 263L78 267ZM213 250V245H217L224 250L222 256H219L213 250ZM111 232V229L130 222L132 225V227L123 236L111 232ZM206 225L211 220L215 225L211 229L206 225ZM143 207L148
202H152V207L148 212L143 207ZM66 196V193L71 189L76 193V196H66ZM179 184L181 182H188V189H184L179 184ZM204 177L206 175H208L215 180L213 187L204 177ZM121 171V167H127V171H121ZM240 169V162H244V169H240ZM107 160V155L123 153V157L116 164H111L107 160ZM201
160L199 157V151H206V155L201 160ZM172 119V115L177 110L179 112V119H172ZM217 110L213 104L215 101H222V106L217 110ZM111 101V99L116 94L118 97V101H111ZM231 94V92H240V99H235L231 94ZM62 97V94L66 85H73Q69 96 64 97H62ZM116 38L118 31H127V38L123 43H121L116
38ZM206 38V31H213V38H206ZM56 27L53 25V22L58 18L53 11L58 7H62L64 16Q60 26 56 27ZM107 27V25Q113 9 121 9L127 11Q122 27 107 27ZM168 27V22H172V27H168Z" />
<glyph unicode="J" glyph-name="J" horiz-adv-x="481" d="M219 810H436L440 805V799H434V796H438V792H434V785L438 778V776H434V774Q449 774 449 756H451L445 656L447 598L440 580V575L454 542V517L456 487L440 368V340L449 309V305L440 275L449 266V255Q449 239
440 230L443 219V171L451 140V128L443 59V4L438 0H282L280 2L278 0H102Q84 20 75 20L73 18L77 4L73 0H48L43 4V221L48 226H215V805L219 810ZM434 805V803H438V805H434ZM424 787V783H427V787H424ZM434 769V767H438V769H434ZM422 758L429 751V753L424 758H422ZM434
758V756H438V758H434ZM434 751V749H438V751H434ZM443 751V746L447 751H443ZM422 746V742H424V746H422ZM427 740L429 733H434V742H431L429 740H427ZM251 690L255 686L262 695L260 697H257L251 690ZM249 672L244 666L247 663H249L253 668L249 672ZM217 627L219 625H226V632H222L217
627ZM278 611V604H282L287 609L285 611H278ZM251 546L253 544H260V550H255L251 546ZM233 305L228 298L230 295H233L237 300L233 305ZM298 302V298H300V302H298ZM305 302V298H307V302H305ZM330 275L337 271L339 273V280H334L330 275ZM253 262L255 260H262V262L257
266L253 262ZM397 255Q397 250 391 250V248L395 243L402 250L397 255ZM289 230V228L309 221L312 223Q307 234 303 235H300L289 230ZM222 233V226H228V233H222ZM386 228V221H393V228H386ZM156 217V214H163L165 217V219H163L156 217ZM323 210V201H330L332 208L330
210H323ZM249 196L247 194V187H253V192L249 196ZM359 187V181H366V187H359ZM389 185L384 178V174H389L395 181L389 185ZM111 183V176H118V178L113 183H111ZM298 169V165H305V169H298ZM285 158Q285 153 300 151L303 153L294 165L285 158ZM377 153L382 149L386 153L382
158L377 153ZM113 140L115 138H122L127 142V151H120Q115 151 113 140ZM350 113V111H354L359 115V117H354L350 113ZM393 104V99H400L402 106L400 108H397L393 104ZM289 95L296 93L298 95V99H294L289 95ZM411 97V90H418V97H411ZM242 95V93L251 83V86Q247 95 244 95H242ZM107
76V68H118L120 74L118 81H111L107 76ZM296 41V34L300 29H303L307 34V36L303 41H296ZM389 38L384 31L386 29H389L393 34L389 38ZM233 25V23L237 16L230 11L233 4H237L240 7H242L240 9V11L242 20L235 25H233ZM287 25V23Q287 17 296 7L305 11Q300 25 287 25ZM348 25V20H350V25H348ZM136
7H140V11L136 7Z" />
<glyph unicode="K" glyph-name="K" horiz-adv-x="579" d="M48 812H240L244 807V498H347V807L352 812H535L539 807V782Q539 778 546 778L548 775V722L539 701L542 652L539 607L548 518V507Q535 465 526 465L465 401L548 313V257L539 241L542 194L539 149L548 59V47Q548
39 539 27V4L535 0H424Q414 9 404 9L406 7V0H363Q359 0 359 7L357 9H350L354 2L352 0H350L347 2V277Q347 282 354 282V288L345 293H244V239Q237 239 237 234Q237 230 244 230V140L240 135V138L233 135V126L237 122L240 124H242L244 122V4L240 0H57Q52 0 52 7L50
9H48V2H43V9L45 11V14L43 16L48 20L43 29L45 43L43 45V47L45 49V54H43L45 66L43 223L48 812ZM140 733L145 728L149 735L147 737H145L140 733ZM205 728L210 724L215 728L210 733L205 728ZM142 712H145L149 717H147L142 712ZM230 690V687H240V690L235 694L230 690ZM375
683Q375 679 368 679V677L372 672L379 679L375 683ZM95 677L97 674H100L104 679L102 681H100L95 677ZM142 672Q152 657 152 645L158 642L174 652H194L199 656V663Q191 674 163 674L156 681H149Q144 681 142 672ZM363 656V649H370V656H363ZM395 595V588H399L404
593V595H395ZM93 580L90 568L93 566H100L104 570V580H93ZM370 532V528H377L379 535L377 537H375L370 532ZM219 523V521L224 512H228V514L222 523H219ZM273 469V462L278 458H282L285 467L282 469H273ZM264 453V451Q264 442 273 437H282V440Q278 453 264 453ZM323
449H327V453L323 449ZM50 444Q56 422 61 422Q71 422 75 431Q75 437 57 449H55L50 444ZM208 437L212 433H217V437L212 442L208 437ZM113 440V435H118V440H113ZM251 428V422L255 417H260L267 424L257 431L251 428ZM165 424V417H170V419L165 424ZM237 392V390L240
379H244Q249 379 251 390L244 395L237 392ZM415 286V284H420V286H415ZM422 286V284H427V286H422ZM449 261V257H454L458 261L454 266L449 261ZM372 250V243H379V250H372ZM508 232L510 230H514L519 234V239H517L508 232ZM406 216V214L420 208H429V210L422 219L406
216ZM503 212V205H508L512 210V212H503ZM440 194V187H449V194H440ZM363 181V174H368L372 178L370 181H363ZM476 169L479 167V165L485 167V169L481 174L476 169ZM501 162L503 160V158Q512 161 512 165L508 169L501 162ZM228 167V165L233 160H235V167H228ZM415 151L417
149H420L424 153L422 156H420L415 151ZM404 144V140L417 135L420 138V140L413 149H409L404 144ZM494 138L496 135H503V142H499L494 138ZM472 104L469 101V95H472L476 99L472 104ZM510 88L512 86H519V92H514L510 88ZM411 86L409 83V79H415V81L411 86ZM359 79L368
70V72L366 79H359ZM52 72V70H57V72H52ZM61 70V68H66V70H61ZM224 61V52H226L237 54V66H233V68L224 61ZM57 63L52 54Q58 40 63 38H66L63 45L66 59L57 63ZM413 25V20L417 16H424V25H420V27L413 25ZM55 25V20H57V25H55ZM503 23V14H505L510 18V23H503ZM52 18V16H57V18H52ZM61
18V14H66V18H61ZM465 11V4L469 9L467 11H465Z" />
<glyph unicode="L" glyph-name="L" horiz-adv-x="576" d="M56 809H111V800H117V809H265L269 805V690H265Q265 697 259 697L254 690V686Q260 672 267 672L265 674V686H269V501L271 285L269 243Q270 237 285 227H322L328 222H330L337 227H526L531 222V4L526 0H235Q224
0 224 4L211 0H56Q24 31 24 47V49L35 169L30 205Q30 217 48 232L24 267V324Q24 361 50 458V486L35 510V524L50 551Q36 557 35 562V564Q35 582 52 605V659Q35 679 35 701Q35 715 45 749L52 778V805L56 809ZM251 794V787H255L262 794L260 796H257L251 794ZM152 769L170
764V767Q167 776 163 776H159L152 769ZM244 769V767L248 762L253 767L251 769V771L244 769ZM107 744V742H111V744H107ZM114 744V742H118V744H114ZM217 726L219 724H226V731H222L217 726ZM141 724V715H145L149 719L145 724H141ZM159 713V711L163 706L165 708V713H159ZM66
711L64 708V701H71V706L66 711ZM262 706V704H267V706H262ZM271 706V701H273V706H271ZM248 701L253 697V701H248ZM201 695V688H206L212 695L210 697H208L201 695ZM251 688V686H255V688H251ZM102 670L116 666H120V668Q117 677 114 677H109L102 670ZM194 670V668L199
663L204 668L201 670V672L194 670ZM248 672L253 668V672H248ZM251 659L253 656V654L251 641L260 634L262 636V639L260 641V643Q260 650 267 650V652H262L260 650Q256 659 253 659H251ZM271 652V650H275V652H271ZM100 639V636L109 627H111Q107 638 102 639H100ZM167
627V625H177V627L172 632L167 627ZM107 609L114 607L116 609V611L114 614H111L107 609ZM228 611V605H235V611H228ZM154 582V578L159 573H165V580L161 585L154 582ZM206 569V564H210V569H206ZM91 556V549H100V551L96 556H91ZM201 546L204 544H210V551H206L201 546ZM134
544V535L138 531L147 538V542L136 544H134ZM46 538V533L59 528V533L53 540L46 538ZM118 503Q122 493 127 493L132 506L129 508H122L118 503ZM104 483V479L109 474H116V481L111 486L104 483ZM156 470V465H161L156 470ZM84 445V436L89 432L98 438L91 445H84ZM69 405V403L73
393H75Q82 396 82 407L80 409H73L69 405ZM163 405L165 403V400L172 403V405L167 409L163 405ZM228 400L233 396L237 400L233 405L228 400ZM165 385H167L172 389H170L165 385ZM253 362L255 360H262V362L257 367L253 362ZM118 348L120 346H122L127 351L125 353H122L118
348ZM154 337V335L159 330L163 335L161 337V340L154 337ZM224 335L222 333V326H228V330L224 335ZM156 317V315H163L165 317V319H163L156 317ZM114 306V301H118L122 306L118 310L114 306ZM179 304V301L183 297L188 301L185 304V306L179 304ZM248 304V299H251V304H248ZM255
304V299H257V304H255ZM246 297V288H248L253 292L248 297H246ZM118 290L116 288V285H118L125 288V290H118ZM111 283V277H118V283H111ZM204 263V261H212V263L208 267L204 263ZM69 250L71 247H73L77 252L75 254H73L69 250ZM116 252L114 240L120 238L127 240V252H116ZM104
238V236L109 232L114 236V238H104ZM240 232V229L255 222L262 225L253 236H251L240 232ZM172 234V227H179V234H172ZM107 218V216H114L116 218V220H114L107 218ZM350 218V212H354L359 216L356 218H350ZM273 212V202H280L282 209L280 212H273ZM289 196H298L293 200L289
196ZM199 198L197 196V189H199L204 193L199 198ZM242 196V193L251 184V187Q247 196 244 196H242ZM309 189V182H316V189H309ZM338 187L334 180V175H336L343 177V182L338 187ZM62 184V177H69V180L64 184H62ZM107 177V169H114L120 175L118 182H111L107 177ZM248 171V167H255V171H248ZM368
169V162H375V169H368ZM235 160Q235 154 251 153L253 155L244 167Q235 163 235 160ZM327 155L332 151L336 157L334 160H332L327 155ZM66 153L64 142L66 139H73L77 144V153H66ZM295 142V135L300 130H302L307 135V137L302 142H295ZM233 126V124L237 117L230 112L233
106H240L242 117Q238 126 235 126H233ZM287 126V124Q287 115 295 110H302L309 117L287 126ZM345 122H350V126L345 122ZM73 119Q80 94 84 94Q94 94 98 104Q98 110 80 122H77L75 119H73ZM136 112V108H141V112H136ZM343 106V101H350L352 108L350 110H347L343 106ZM278
104L273 97V94L278 90H282L289 97V99L278 104ZM240 97H248L244 101L240 97ZM359 94L361 92H368V99H363L359 94ZM188 97V90L190 92H192Q197 92 197 85H201V88Q198 97 194 97H188ZM55 72L57 69H69L71 76L69 83H62Q58 83 55 72ZM287 67V65L291 61H293L298 65V67L293
72H291L287 67ZM260 65V63L262 52H267Q271 52 273 63L267 67L260 65ZM278 54Q284 39 289 38L295 41Q295 56 278 56V54ZM338 56V52L343 56H338ZM69 52L66 49V47Q70 25 75 25H82Q89 27 89 38L69 52ZM129 43L127 41V38H134L129 43ZM224 43V36H233V38L228 43H224ZM246
43V36L251 31H253L257 36V38L253 43H246ZM334 38V36L338 31L343 36L340 38V41L334 38ZM267 31V27H264L269 18Q280 21 280 25V29L269 31H267ZM179 22V20H185V18L181 11L185 7H190L192 18L185 27H183L179 22ZM237 27V25Q237 18 246 9L255 14Q250 27 237 27ZM295 22H300V27L295
22ZM87 14V9H91V14H87Z" />
<glyph unicode="M" glyph-name="M" horiz-adv-x="830" d="M45 812H325Q346 812 346 788L417 493H419L483 810H532Q536 810 536 804H542L545 810L784 812L788 808V509Q805 366 805 313L799 306V247Q803 219 816 219V216L805 184V155H801L799 164H797Q788 136 788
122V7L784 2H596L592 7V29L583 56L594 151L598 155H592V171L590 196L592 225V245L583 270V302Q583 330 592 382V464L594 477L592 511H590Q565 371 559 371L556 367L559 360H558L551 365L542 358L556 349V347Q499 36 493 36Q486 43 479 43V41Q479 24 491 11Q489
0 485 0H444Q440 0 440 7H438L431 2H419L361 0L359 9H348Q348 0 344 0H316V2L323 29L308 160L310 162Q305 162 291 241L297 243V245Q278 245 278 277Q267 305 267 351V376L241 452H239V234L252 219Q242 196 239 196H237L220 207L215 202V198Q222 164 231 164L239
167V7L235 2H45L41 7V43Q34 51 34 59V61L41 144V252Q41 260 34 268V326L41 387V552L51 549L56 554V558L51 563H49Q45 563 45 556H41V808L45 812ZM515 752L510 745L513 743H519V747L515 752ZM152 709L154 707H156L160 711V714H156L152 709ZM92 695H96L101 700H96L92
695ZM248 687L252 682L256 687V691H252L248 687ZM175 673L179 669L184 673L179 677L175 673ZM468 669V664H472V669H468ZM312 666Q312 662 306 662V660L310 655L316 662L312 666ZM47 660L49 657H51L56 662L53 664H51L47 660ZM269 655L267 653V650L269 648H271L273
650V653L271 655H269ZM214 639Q214 634 229 632V635Q229 641 222 646Q214 642 214 639ZM301 639V635L306 630L308 632V639H301ZM316 637V632H320V637H316ZM275 599V592H282V599H275ZM218 581V576H224V581H218ZM331 579V572H340V579H331ZM308 515V511H314L316 518L314
520H312L308 515ZM427 504L431 500L436 507L434 509H431L427 504ZM164 507V504L169 495H173V497Q170 507 167 507H164ZM489 500L491 497V495L498 497V500L493 504L489 500ZM429 489V484H431L436 489H429ZM513 462L515 459H521V466H517L513 462ZM643 448L647 444L654
450L652 452V455Q643 451 643 448ZM215 448V446L220 441H222L226 446L224 452H220L215 448ZM385 448L387 446H389L393 450L391 452H389L385 448ZM419 437V434L423 430L427 434L425 437V439L419 437ZM207 437V432Q212 420 218 419L224 423Q224 431 207 437ZM265
437V432H267V437H265ZM485 434L483 432V425H489V430L485 434ZM549 432V427L562 421L568 423Q564 434 559 434L549 432ZM639 427V421H645V427H639ZM64 419H68V423L64 419ZM154 423V421L158 417H162V423H154ZM421 414H425L429 419H425L421 414ZM194 407V405L198 399Q208
403 209 407L203 412H198L194 407ZM113 405V401H118V405H113ZM506 396V392L510 387L513 389V396H506ZM615 389L613 387V380H619V385L615 389ZM641 385L636 378V374H639L647 380L641 385ZM181 376V374L184 362H188Q193 362 194 374L192 376H181ZM669 367V365L673
360V367H669ZM630 354L635 349L639 356L636 358H635L630 354ZM724 319V313H730V319H724ZM604 317V311H609L613 315L611 317H604ZM645 304L649 299H652L654 306L652 309H649L645 304ZM660 292L662 290H669V297H664L660 292ZM374 277V268H380L387 274L385 281H378L374
277ZM222 272L224 270H231V277H226L222 272ZM286 272V266H292V272H286ZM357 270V268H361V270H357ZM226 257V252H229L235 259H233L226 257ZM385 250L382 247V241H387L391 245L385 250ZM310 234V227H316V234H310ZM184 223L181 221V214H184L188 219L184 223ZM440 216L444
212Q444 216 451 216L448 223H446L440 216ZM402 212V207H406V212H402ZM342 200Q342 194 359 191H363V194L354 202L342 200ZM434 196V189H438L442 194V196H434ZM451 196V189H455V191L451 196ZM374 178V171L380 169L382 171V178H374ZM408 153L412 149L417 153L412
157L408 153ZM431 146L434 144V142L442 146L440 153L431 146ZM173 151V149L177 144H179V151H173ZM393 137H397V142L393 137ZM350 135L352 133H359V135L354 139L350 135ZM465 133V128H468L472 133V137H470L465 133ZM340 131V126Q340 122 352 119L354 122V124Q353
131 346 133L340 131ZM427 126V119H434V126H427ZM442 124V119H446V124H442ZM177 115V106Q188 106 190 112V115L184 122L177 115ZM402 86V79H408V86H402ZM440 74L442 67H444L448 72V76H444L442 74H440ZM632 74V70H636V74H632ZM346 70L344 67V63H350V65L346 70ZM457
65V59H462L465 63V65H457ZM171 49L169 38V36H171L181 38V45L177 49H171Z" />
<glyph unicode="N" glyph-name="N" horiz-adv-x="600" d="M65 811H250L254 807V439H257Q267 500 277 500L279 503Q279 507 272 507L349 811H554L559 807V762L563 678L559 635V561Q583 384 583 311L576 304V248Q576 234 594 212L583 185V156H579Q579 162 574 162L568
131H565L563 133H561L559 131V126L565 124Q559 75 559 27V4L554 0H514L507 4H502L496 0H369L365 4V14L367 23L362 49L365 146L362 322L365 406H362Q316 216 311 216Q299 216 299 212L309 198Q259 5 254 0H65Q61 0 58 18Q37 41 38 56L47 162L49 164Q45 176 45 205Q49
226 61 226L38 261V320Q38 340 61 448V469L49 498V505L61 532L49 543V550Q49 563 61 579V640Q49 656 49 669V683L61 743V807L65 811ZM223 626L221 618L223 615H225L229 624L223 626ZM160 620L162 618H164L169 622V624H164L160 620ZM69 608V602H72L76 606V608H69ZM223
597L225 595H229V602H227L223 597ZM104 586V579H106L110 583V586H104ZM149 575V566H157L162 570L155 577L149 575ZM216 559V552H218L223 556V559H216ZM173 523V518H178V523H173ZM151 441Q151 437 162 435L155 441H151ZM261 421L266 417V421H261ZM214 412L221 408L225
412V417H218L214 412ZM212 399V396L223 390H227L232 394Q229 401 218 401L212 399ZM214 378L212 376V372L216 367H218L225 374V376L214 378ZM173 372V365H180V372H173ZM212 338L218 331H223V340L221 343V345L212 338ZM144 340V336H146V340H144ZM94 336V333H99V336H94ZM491
313L489 304L491 302H493L498 309V311L491 313ZM430 311V304H437V311H430ZM493 288V281H500V284L496 288H493ZM284 277V271H286L290 275L288 277H284ZM371 273V271L376 266L378 268V273H371ZM290 257H293L297 261V264L290 257ZM421 264L414 255L428 252L430 255V257Q430
260 421 264ZM450 252L448 250V243H450L455 248L450 252ZM509 252L507 243L509 241H511L516 250L514 252H509ZM541 250V243H543L547 248V250H541ZM484 246V239H486L491 243V246H484ZM509 223L511 221H514L518 226L516 228H514L509 223ZM268 216L266 214V209H272V212L268
216ZM392 214L389 212V207H396V209L392 214ZM441 209V205H444L448 209H441ZM437 203L434 201V191H437L448 194V196Q448 201 437 203ZM543 194L541 191V185H543L547 189L543 194ZM559 189V183H561L565 187V189H559ZM502 185V183L507 178L509 180V185H502ZM284 156V149H286L290
153L288 156H284ZM459 146V144H464V151L459 146ZM421 128V124L430 122L424 128H421ZM531 108V104H534V108H531ZM484 104V99L489 95H493V101L491 104V106L484 104ZM482 88V86L491 76H496L500 81L493 88H482ZM437 68V66Q444 66 444 61L441 52H448V61Q448 66 439 68H437ZM482
66L479 63V59L484 54H486L493 61V63L482 66ZM547 47V45H552V47H547ZM500 38L507 34L511 38V41L507 45L500 38ZM479 27Q482 18 491 18V20L493 27L489 31L479 27ZM412 27V23H414V27H412ZM498 27L509 16H514L518 20L511 27H498Z" />
<glyph unicode="O" glyph-name="O" horiz-adv-x="602" d="M98 813H503L559 757V510Q575 368 575 321Q568 319 568 302V257Q568 243 586 221L575 194V165H570L568 174H566L559 133V52L507 0H419Q419 11 415 11H406Q406 0 401 0H329L320 7Q320 0 261 0H96Q40 50
40 66V70L49 167L47 221L60 237Q40 269 40 275V325Q40 347 60 451V474Q60 483 49 499V506L60 538L49 546Q49 565 60 580V644Q49 659 49 675L62 766L98 813ZM329 802L333 797L338 802V806H333L329 802ZM252 788L257 784L261 788L257 793L252 788ZM390 777V774L394
770L401 774L399 781L390 777ZM117 774V772H123V779H121L117 774ZM164 777V772L173 754H175Q179 759 198 759L200 761V770L171 779L164 777ZM293 754Q295 747 306 747H309V752L302 761Q293 757 293 754ZM388 754L385 752V745H388L392 750L388 754ZM358 714V707H365V714H358ZM297
695V691H304V695H297ZM417 693V687H421L426 691V693H417ZM394 635L392 632V625H399V630L394 635ZM241 621V619L245 610H250Q245 620 241 621ZM270 610V205H349V610H270ZM135 533V531L139 535V538L135 533ZM187 519V515H191V519H187ZM369 386V379H376V386H369ZM444
384V382H448V384H444ZM473 364L471 361V354H476L480 359L473 364ZM394 348V341H401V348H394ZM261 337L259 334V327H261L266 332L261 337ZM537 337Q537 332 530 332L532 325H535L541 332L537 337ZM363 316L361 314V307H367L369 314L363 316ZM431 312V309Q444 306
444 302L451 305Q446 315 442 316H440L431 312ZM525 309V302H530L535 307L532 309H525ZM462 292V287L467 282L471 287V292H462ZM385 278V273L390 269L394 275L392 278H385ZM498 269V262H505L507 269H498ZM523 260L525 257V255L535 260L532 267H530L523 260ZM437
248L440 246H442L446 251L444 253H442L437 248ZM557 244L559 242H562L564 248H562L557 244ZM426 244V240Q426 235 440 233L442 235V237L433 246L426 244ZM516 235V233H525V240H521L516 235ZM489 194L491 192H498V199H494L489 194ZM532 185L537 181L541 185V190H537L532
185ZM550 178V172H557V178H550ZM245 158V149H247L259 151V158L254 163H250L245 158ZM435 122V118L442 111L446 115V122H435ZM274 93V88H281L277 93H274ZM326 77V70H331V77H326ZM426 48L433 41H437V52H431L426 48ZM399 45V38L406 31Q413 34 413 45L406 48L399 45ZM417
36Q420 24 428 18L437 21Q432 36 417 36ZM478 36V31H483V36H478ZM266 18H272V23H270L266 18Z" />
<glyph unicode="P" glyph-name="P" horiz-adv-x="604" d="M69 811H181L188 807L195 811H476L561 726V386L478 303H292V43Q292 38 285 38L282 36V31Q292 22 292 2L289 0H287L280 2L253 0H98Q94 0 94 11Q65 19 65 29Q65 50 46 65L40 85V88L49 195L44 229Q44 248
60 258Q40 292 40 299V353L62 494L49 528V530L60 564Q51 564 49 575Q49 593 65 614V645Q49 683 49 701Q49 720 60 762H65Q65 739 78 739Q85 739 85 748H87Q79 766 62 766L65 778V807L69 811ZM98 784V778H105V784H98ZM166 782V780H170V782H166ZM258 778V773L264
766H267Q267 775 271 775L269 782H262L258 778ZM199 762V753H204L208 757L204 762H199ZM222 760V755L226 750L231 755L224 760H222ZM125 757V753H130V757H125ZM125 748L123 746V739H130V744L125 748ZM177 742V735H181V742H177ZM161 708L174 703H179V705L172 715H168L161
708ZM253 708V705L258 701L262 705L260 708V710L253 708ZM226 665L229 663V661L235 663V665L231 670L226 665ZM201 573L269 521L244 443Q309 490 316 490L379 443H381L357 524L424 571V573H343Q337 573 314 654L285 573H201ZM166 647L168 645H170L174 649L172 652H170L166
647ZM109 575L118 566V569L116 575H109ZM163 521V517L170 510L174 514V521H163ZM215 508V501L219 506L217 508H215ZM154 503Q160 490 163 490H174Q170 506 154 506V503ZM101 494V490L105 486L109 490V492L101 494ZM146 483L141 476L143 470H150L156 476Q156 482
146 483ZM128 445Q129 431 134 431L141 438V445L134 447L128 445ZM172 346V339H177L181 344L179 346H172ZM237 337V335H247V341H242L237 337ZM174 326V323H181L184 326V328H181L174 326ZM262 299L264 297H271V303H267L262 299ZM128 288L130 285V283L136 285L134
292H132L128 288ZM163 272L166 270V267L172 270V276H168L163 272ZM166 252H170L174 256H170L166 252ZM256 234V227H262V234H256ZM121 220V213H123L128 218L125 220H121ZM123 177L130 175L136 177V189H132V191Q123 189 123 177ZM249 132L260 122V124Q257 132 253
132H249ZM114 108L116 106H123L130 112L128 119H121Q115 119 114 108ZM242 63V61L247 54L240 49L242 43H249L251 59L244 63H242ZM83 54Q89 32 94 31H98L105 38V45Q105 49 89 59H87L83 54ZM146 49V45H150V49H146ZM197 34V27H201V29L197 34Z" />
<glyph unicode="Q" glyph-name="Q" horiz-adv-x="615" d="M112 811H502Q537 782 558 755V507Q572 374 572 329Q565 327 565 316V273Q565 247 583 232L572 203V174H567L565 183H562L558 153V47L510 -2L531 -87L529 -90H407Q400 -90 382 -2H141L135 2L130 -2H94Q46
40 40 72V74L49 183L44 216Q44 235 60 246L40 279V336L60 469V491Q49 507 49 516V518L60 550Q49 555 49 561Q49 578 60 595V642Q49 656 46 671Q59 773 71 773L112 811ZM270 608V203H337L344 198L346 608H270ZM364 505V503H369V505H364ZM391 480V476H396L400 480L396
485L391 480ZM366 444V442L371 437H373V444H366ZM461 376V374H465L470 378V381H465L461 376ZM479 367V363H481L488 370L486 372H484L479 367ZM186 325V318H191L195 322L193 325H186ZM452 309L455 302H457L461 306V311H457L455 309H452ZM125 306V302H135L130 306H125ZM247
304V298H254V304H247ZM416 300V293H418V300H416ZM204 284V279H209V284H204ZM256 268V261L260 266V268H256ZM161 241L164 239H166L170 243L168 246H166L161 241ZM220 243V236H225L229 241V243H220ZM69 232V230L73 221H78V223L69 232ZM407 228V223H412V228H407ZM195
214V210H200V214H195ZM247 198V191H252V194L247 198ZM342 196V191H344V196H342ZM123 174V171L128 167H135V174L130 178H128L123 174ZM319 162V160L326 153L333 160V167H324L319 162ZM175 162V158H177V162H175ZM58 144L60 142H67V144L62 149L58 144ZM524 133L529
128Q529 133 535 133V135L531 140L524 133ZM101 131L103 124Q115 124 116 131L110 138H105Q101 138 101 131ZM243 133L249 122H252V126L249 133H243ZM159 115V106L168 104L170 106V111L166 115H159ZM488 108Q493 95 497 95H506Q506 111 488 111V108ZM87 97V93L94
86H96L101 95V97L96 101H92L87 97ZM423 101V97H427V101H423ZM150 97Q156 83 159 83H168Q168 99 150 99V97ZM141 76L137 70V68L141 63L153 66V72L141 76ZM306 76V72H303Q307 63 310 63L319 70V74L308 76H306ZM416 56L418 54H425V61H420L416 56ZM484 52L479 45V41H484L490
47L484 52ZM520 52L517 50V43H524V47L520 52ZM123 38V36L125 25H130Q135 25 137 36L135 38H123ZM213 29L211 27V21H218V25L213 29ZM371 23L375 18H378L380 25L378 27H375L371 23ZM265 25V18H270L274 23L272 25H265ZM441 21V16L445 11L450 16L445 21H441Z" />
<glyph unicode="R" glyph-name="R" horiz-adv-x="621" d="M67 813H472Q562 727 562 720T569 712L571 709V707L576 604Q577 576 577 551Q577 494 571 457Q567 426 562 426H560V399H569V394Q569 381 553 381Q553 371 540 371V367L544 360Q495 317 495 302Q503 302
517 205L524 178Q515 174 515 171V167Q515 162 528 158L531 139H528L531 137V135L528 128H531Q535 127 558 2L556 0H524V9H519L517 7H515L517 4V0H357Q351 0 328 131Q339 133 344 142Q344 146 323 164L294 304H288V4L283 0H251Q247 0 247 7H243L238 2L148 0H65L60
4V38Q39 64 40 79L49 189L44 219Q47 248 60 248Q40 282 40 288V351L56 349L60 356Q60 364 44 378V381Q62 468 62 484L49 520V522L60 552Q49 558 49 565L60 604V610L49 696L62 768V809L67 813ZM299 669Q274 586 270 586H188L256 534L231 455Q296 502 303 502Q340
472 368 455V457L344 536L411 583V586L378 588H326L301 669H299ZM483 514V511L488 507L493 511L490 514V516L483 514ZM553 514V509H556V514H553ZM560 514V509H562V514H560ZM78 502V493H80L92 496V507H87V509L78 502ZM508 473L510 471V469L517 471V473L513 477L508
473ZM409 448V441H413L418 446V448H409ZM474 439L477 437H483V444H479L474 439ZM544 441V439H549V441H544ZM411 428V426H418L420 428V430H418L411 428ZM501 405V399H508V405H501ZM364 392L366 385L373 387V389L368 394L366 392H364ZM312 381V376H315V381H312ZM198
369L195 367V365L200 360H204V367L198 369ZM101 367V363H105V367H101ZM371 363L368 351V349H378L382 354V358L378 363H371ZM238 356V349L243 344H247L253 351L245 358L238 356ZM153 351L150 349V347L153 344H157V347L153 351ZM224 320V317L227 306H231Q236 306
238 317L236 320H224ZM360 279L366 277L373 284H375L368 291V293Q360 291 360 279ZM130 261L128 259V252H134V257L130 261ZM488 234L490 232V223H486V221L493 214H495L497 230L490 234H488ZM328 230Q333 205 337 205H346L351 209V216Q343 230 330 230H328ZM267
216V214H276V221H272L267 216ZM391 221V216H396V221H391ZM403 214V212H407V214H403ZM443 205V198L448 203V205H443ZM272 201V196H274L278 201H272ZM436 191V184H445V191H436ZM360 178V171H366V178H360ZM116 171V169Q116 160 128 153L134 158Q130 171 116 171ZM497
160L499 158V156L508 162L503 167L497 160ZM224 164V158H227L231 162V164H224ZM479 153V149L483 144L488 149L481 153H479ZM263 151L260 149V142H267V146L263 151ZM382 151V146H386V151H382ZM396 144V139L413 133L416 135V137Q414 144 407 146L396 144ZM490 135L493
133H499V139H495L490 135ZM434 135V128H438V131L434 135ZM263 126H265L270 131H267L263 126ZM427 119L429 113H432L436 117V122H432L429 119H427ZM351 104L355 99L360 104L355 108L351 104ZM137 101L143 94H148V106H141L137 101ZM506 104V97L513 90Q519 92 519
104L513 106L506 104ZM465 99V92H472V99H465ZM495 97L488 88L490 86H493L499 92L495 97ZM215 90V88H222V94H220L215 90ZM405 81V76H411V81H405ZM429 79V74Q429 71 438 68L441 70V79H429ZM524 79V72H528L533 76V79H524ZM391 70Q393 63 405 63H407Q407 71 400 76Q391
73 391 70ZM481 63V61H486L490 65V70H488L481 63ZM220 59V49H227L233 56V59L229 63H224L220 59ZM101 52V49Q107 35 112 34H121V36Q121 46 101 52ZM366 52V47L371 43L375 47L371 52H366ZM148 45L150 43V41L157 43V45L153 49L148 45ZM270 49V45H276L272 49H270ZM173
45V43L177 34H182V36L173 45ZM243 29V20H249L256 27V29L251 34H247L243 29ZM150 25H155L159 29H155L150 25ZM420 29V25H427V29H420ZM456 29V23H463V29H456ZM499 16V11H506V20H503L499 16ZM396 11V9L400 4L403 7V11H396Z" />
<glyph unicode="S" glyph-name="S" horiz-adv-x="604" d="M69 811L561 807V591L556 587H289V508H556L561 503V193Q572 70 572 27Q559 16 559 0L65 4V27Q40 31 40 49V54L58 164Q68 227 69 227H334V303H69Q55 303 40 396V400Q52 479 56 479H58V483Q52 483 40 517V524L51
553Q41 557 40 562V569Q40 590 65 611V642Q40 667 40 687V694Q40 721 65 795Q65 811 69 811ZM80 780V773H85L89 778L87 780H80ZM146 771V768H154V771L150 775L146 771ZM83 760V755H85L89 760H83ZM251 753L247 746L249 744H256V748L251 753ZM170 733L172 730H179V737H174L170
733ZM314 726Q314 721 307 721L309 715H312L319 721L314 726ZM83 715Q89 705 91 687L98 685Q112 694 118 694H134L139 699V705Q139 713 101 719L96 723H89Q83 723 83 715ZM211 699V697L222 692L229 694Q224 705 219 705H217L211 699ZM303 699V692H309V699H303ZM276
658V652H282V658H276ZM215 640V636H222V640H215ZM339 640L334 634L337 632H343V636L339 640ZM159 566V564L163 555H168V557Q164 566 161 566H159ZM213 508V506L217 501H219L224 506V508L219 512H217L213 508ZM204 496V492Q208 480 215 479L222 483Q222 491 204
496ZM264 496V492H267V496H264ZM148 483V481L152 476H156V483H148ZM190 467V465L195 458L206 463V465L199 472H195L190 467ZM105 465V461H109V465H105ZM177 436V427L184 420L190 429L188 436H177ZM224 337L219 330L222 328H224L229 333L224 337ZM287 328L292 323H294L296
330L294 333H292L287 328ZM224 317V312H226L231 317H224ZM388 308V303L392 299L397 303V308H388ZM455 283Q455 279 449 279V276L453 272L460 279L455 283ZM347 258V256L365 250L368 252V254L359 263L347 258ZM444 256V250H451V256H444ZM379 234L384 229H388V238H384L379
234ZM303 222V220L307 216L312 220V222H303ZM417 216V209H424V216H417ZM447 213L440 205L442 202H447L451 207V209L447 213ZM168 207L172 202L174 205V211H172L168 207ZM357 198V193H363V198H357ZM476 195V189H480V195H476ZM343 187V182L359 180V184L352 191H347L343
187ZM437 187L435 184V177H442V182L437 187ZM172 175V166H181L186 171V175L181 180H177L172 175ZM408 142L413 137L417 144L415 146H413L408 142ZM451 135V128H458V135H451ZM347 124L350 122H354V128H352L347 124ZM467 122L469 119H476V126H471L467 122ZM300 124L298
122V119L307 112H309Q305 123 300 124ZM168 110L163 103V99L168 94Q177 98 177 101V108L168 110ZM352 65L354 59H363V65L359 69L352 65ZM442 61L447 56L451 63V65H447L442 61ZM343 54V52Q349 37 354 36H359L361 38H363Q363 48 343 54ZM404 49H408V54L404 49ZM289
52L294 45L289 38V34H298L300 43Q297 52 294 52H289ZM132 47Q135 22 141 22H152L154 34Q146 47 134 47H132ZM193 38L197 34H199V38H193ZM334 29L332 27V20L337 16H339L345 22V27L334 29ZM244 22V20L249 16L251 18V20L249 22H244Z" />
<glyph unicode="T" glyph-name="T" horiz-adv-x="585" d="M259 826H309L423 812Q432 812 448 824H455L482 815V817L488 824H493L506 812H533L538 808V590L533 586H403V467L412 326L414 310L407 303V245Q407 228 423 213V211L414 184V153H410L407 162H405L403 150V4L399
0H181Q176 0 176 18Q159 35 156 54L165 155L163 207Q167 222 176 222Q176 230 156 260V303Q156 339 174 424L181 420H185V427H181L178 424H176V472Q165 488 165 496L176 528L165 536L176 577V586H46L42 590V808L46 812H71Q80 820 91 819L165 815L217 817L230 812H233Q240
812 259 826ZM142 792V786H149V792H142ZM82 774V772L87 767L89 770V772L87 774H82ZM201 767L203 765V763L210 765V767L205 772L201 767ZM176 712V707L181 703L183 705V712H176ZM77 640L84 633L89 638V644H82L77 640ZM69 628L75 613H89Q89 627 69 628ZM129 628V624H134V628H129ZM59
606L57 604V593H59L71 595V599Q71 604 59 606ZM228 462V460H233V462H228ZM255 437V433H259L261 435H264L261 442H259L255 437ZM313 411L320 404L324 411V415H322L313 411ZM214 391V389L230 384H235V386L226 395H223L214 391ZM309 389V382H313L318 386V389H309ZM246
370V364H255V370H246ZM170 357V350H176V357H170ZM282 346L286 341L291 346L286 350L282 346ZM306 339L309 337V334L318 339L316 346H313L306 339ZM221 328L223 326H226L230 330L228 332H226L221 328ZM344 330L342 328V321H344L349 326L344 330ZM210 323V319Q210
314 223 312L226 314V316L217 326L210 323ZM300 314L302 312H309V319H304L300 314ZM273 274L275 271H282V278H277L273 274ZM316 265L320 260L324 265V269H320L316 265ZM214 260V256H221V260H214ZM333 258V251H338L342 256V258H333ZM165 256V253L174 245V249L167
256H165ZM219 202V193L228 191L230 193V202H219ZM311 200L309 198V191H316V195L311 200ZM210 184Q215 170 219 170H228Q228 186 210 186V184ZM271 186V182L275 186H271ZM201 164L196 157L199 150H201L212 153V157Q212 161 201 164ZM210 128L212 121H221V128L217
132H214L210 128ZM183 126V119L190 112L196 119V121L192 126H183ZM201 117V115Q206 99 214 99L221 101Q221 111 201 117ZM261 117V112H266V117H261ZM190 92V83L194 79L203 85V90L192 92H190ZM174 52Q178 42 183 40L187 47V52L183 56H178L174 52Z" />
<glyph unicode="U" glyph-name="U" horiz-adv-x="605" d="M56 813H243L248 809V780V205H354L358 813H545L550 809V543Q568 397 568 336Q561 333 561 322V275Q561 256 579 239L568 210V181H563L561 189H559L550 138V49L500 0H437Q433 0 433 7H430Q422 0 410 0H354L342
14L329 9V7Q336 7 336 2V0H261V4H268V11Q244 25 232 25L229 23H227Q224 31 212 31L205 25V20L212 11V4L207 0H88Q59 24 53 40Q36 85 36 86V90L45 198L40 230Q40 247 52 259V264Q52 272 36 295V351Q36 372 52 460V509L45 532V534L52 557V570Q45 570 45 577L52 606V672L45
705L52 755V809L56 813ZM61 780V773H65L69 778V780H61ZM126 771L128 768H135V775H131L126 771ZM196 773V771H200V773H196ZM63 760V757H69L72 760V762H69L63 760ZM229 753V744H236L239 750L236 753H229ZM155 739L153 737V730H155L160 735L155 739ZM191 701Q194 694
205 694H209V696L203 705H196L191 701ZM196 638L198 635H200L205 640L203 642H200L196 638ZM139 566L144 557H149V559L142 566H139ZM61 528L63 525V523L69 525V528L65 532L61 528ZM128 528V523L133 518L135 521V528H128ZM203 525V523H207V525H203ZM65 512L63 509V507H65L72
509V512H65ZM194 512V507L200 500L205 505V512H194ZM229 503V496H234L239 500L236 503H229ZM184 493Q190 480 194 480H203Q203 496 184 496V493ZM153 489V482H160V489H153ZM131 485V480L135 476L139 480L133 485H131ZM176 473L171 466L174 460H180L187 466Q187
472 176 473ZM85 466V460H90V466H85ZM191 451V448L207 444L209 446Q205 457 200 458H198L191 451ZM157 435V428L164 421Q171 424 171 435L164 437L157 435ZM198 392V388H205L200 392H198ZM203 336V329H209V336H203ZM139 318V316L149 306V309Q145 318 142 318H139ZM205
316V313H212L214 316V318H212L205 316ZM369 304L374 300H378V309H374L369 304ZM157 277L162 273L164 275V282H162L157 277ZM430 277L433 271Q441 274 441 277L437 282L430 277ZM194 261V257L198 253H205V259L198 266L194 261ZM426 255V248H433V255H426ZM184 248V246Q191
231 196 230H198Q203 230 203 236L200 243L203 246L184 248ZM363 236V230H367L371 234L369 236H363ZM131 234V228H135L139 232L137 234H131ZM174 223L171 214L178 210Q187 213 187 216L180 223H174ZM85 216V212H90V216H85ZM399 212V207H401L406 212V216H403L399
212ZM428 212L424 205L428 201Q428 205 435 205L428 212ZM149 205L151 203H153L157 207L155 210H153L149 205ZM340 198L338 196V194L340 191H344V194L340 198ZM459 196L457 189L459 187H462L464 194L462 196H459ZM324 185V183L340 178L342 181Q338 191 333 191H331L324
185ZM153 174V169Q153 164 160 164Q167 164 171 185L169 187H162L153 174ZM417 181V178H421L426 183V185H421L417 181ZM390 144V138H394L399 142V144H390ZM433 131L437 126H439L441 135H437L433 131ZM331 126V122H336V126H331ZM451 124V117H457V124H451ZM279 122L291
111V113Q287 122 284 122H279ZM144 97L146 95H153L157 99V108H151Q146 108 144 97ZM205 88L203 86V79H209V83L205 88ZM268 81V79L272 74L277 79L275 81V83L268 81ZM338 81V76H340V81H338ZM344 81V76H347V81H344ZM205 63H207L212 68H209L205 63ZM336 68V59L344 56L347
59V63L342 68H336ZM424 63V61L428 56L433 61L430 63V66L424 63ZM369 54L376 49L378 52V59H374L369 54ZM272 52V49L277 43L270 36L275 31H279L281 43Q278 52 275 52H272ZM326 52V49Q326 41 336 36H344V38Q340 52 326 52ZM387 52V47H390V52H387ZM112 47L117 29V23L128
20L135 27V34Q124 47 112 47ZM293 41L295 38V36L302 38V41L297 45L293 41ZM176 38V34H180V38H176ZM437 34L430 25L433 23H435L441 29L437 34ZM157 27V25H164V31H162L157 27ZM313 27V20L318 16H322L329 23L320 29L313 27ZM194 16V9H198L203 14V16H194Z" />
<glyph unicode="V" glyph-name="V" horiz-adv-x="581" d="M224 813Q228 813 242 732L289 464H292Q348 798 354 813H535L539 809Q474 443 474 414Q474 343 456 284Q447 253 447 225Q447 215 458 203V198Q440 178 440 146H438Q434 146 434 153H431Q417 124 413 90L402
88V83L411 72Q411 68 404 68L393 72V70Q397 56 404 56V54Q404 18 393 14L397 2L395 0H379V11H366V0H188V4L222 11V25Q203 29 201 34L190 31H188Q175 31 163 110Q148 214 136 214L134 223L141 241Q141 267 116 340L84 572L53 705Q51 766 42 811L44 813H224ZM127
795L129 793H136V799H132L127 795ZM194 795V788H201V795H194ZM132 777H134L139 781H136L132 777ZM84 745V741L89 736L91 739V741L87 745H84ZM80 642V633L84 628Q94 632 94 635V637L87 644L80 642ZM206 586L215 576V581L210 586H206ZM312 516V511H316V516H312ZM197
504V500L201 496H206V500L201 504H197ZM100 502V498H107V502H100ZM240 489V484Q240 479 247 479L253 482V486L247 493H244L240 489ZM154 486L152 484V482L154 479H156L159 482V484L156 486H154ZM224 453Q227 441 231 441L237 448V453L233 457H231L224 453ZM269
356V349H274L278 354V356H269ZM337 351V344H343V351H337ZM404 349V347H409V349H404ZM411 349V347H415V349H411ZM271 336V333H278L280 336V338H278L271 336ZM438 329V320H442L447 324L442 329H438ZM361 313V306H368V313H361ZM224 299L226 293H229L233 297L229 302L226
299H224ZM260 281L262 279H269V286H264L260 281ZM327 277L332 272L337 279L334 281H332L327 277ZM395 279V277L413 270H417V272Q414 281 411 281L395 279ZM172 272L174 270H181V277H177L172 272ZM264 266V261H267L271 266H264ZM429 257V250H438V257H429ZM194 239L197
236H199L206 239V241L201 246L194 239ZM352 243V236H359V243H352ZM217 230V223H219L224 227V230H217ZM404 214L406 212H409L413 216L411 219H409L404 214ZM174 209Q179 196 188 194L194 196Q190 212 174 212V209ZM393 209V205Q393 201 406 198L409 201V203Q407
209 399 212L393 209ZM219 187L226 184L233 191H235L229 198V201Q219 198 219 187ZM301 184V178H307V184H301ZM397 146V142H404V146H397ZM348 142L357 131V135L350 142H348ZM255 135Q257 128 264 126L269 133L264 137H260L258 135H255ZM213 124V115H219L226 122V124L222
128H217L213 124ZM303 88V86L307 81L312 86L309 88V90L303 88ZM249 79V72H255V79H249ZM271 74L276 70H278L280 76L278 79H276L271 74ZM339 72V70L343 63L339 59V56L343 52L348 56L346 59L348 61H350Q346 71 341 72H339ZM181 68L179 65Q185 41 190 41Q200 41 204
49Q195 68 181 68ZM242 59V54H247V59H242ZM384 49L379 43L382 36H384L395 38V43Q395 48 384 49ZM294 43V36H298V38L294 43ZM276 18L282 16L285 18V20L282 23H280L276 18Z" />
<glyph unicode="W" glyph-name="W" horiz-adv-x="871" d="M44 811L46 813H226Q233 813 253 682H251Q243 689 235 689H233V687Q239 664 242 664H258L287 491L285 477Q292 477 292 464H294Q294 479 301 479L298 482V500H301L307 496H316V498Q314 508 301 514L303
524Q307 524 307 518L314 516L319 522L312 529L305 524V529Q341 753 348 761H350L348 774Q351 813 357 813H521Q526 813 550 655Q555 647 584 464H587Q596 527 600 527L598 529V531Q645 805 649 813H830L834 809L825 752L827 687Q829 651 800 619L794 576Q800 565
800 554V534Q800 530 787 524L792 493V486Q769 470 769 381Q769 284 746 241H735L733 239H731L735 230L731 216L737 209V201Q722 130 722 101Q722 48 694 11Q694 0 688 0H499Q497 0 474 128L449 266H462V268Q462 277 447 277L440 317H438L395 65L384 68L388 61L384
54V52L391 45Q384 0 379 0H190Q184 0 170 94Q164 135 152 162H149V156H145Q145 171 125 214Q132 222 132 234Q121 313 111 313Q89 440 89 484L96 479Q107 483 107 486V493Q107 497 84 511Q79 642 66 642Q42 687 42 748V761Q43 781 48 781L44 811ZM177 797L174 795V788H181V793L177
797ZM177 772H179L184 777H181L177 772ZM402 766V764L406 754H411V757Q409 764 402 766ZM462 750V748H469V750H462ZM472 750V748H476V750H472ZM451 745V743H456V745H451ZM409 743L402 734L404 732H406L413 739L409 743ZM129 741V734H136V741H129ZM177 734V729Q184
724 184 707L190 703H194Q202 711 233 714V716Q231 734 206 734L197 732L188 741H184L177 734ZM462 736V732Q472 716 476 716V721L474 723V725L476 734V739H474L462 736ZM397 712V707H399L404 712V716H402L397 712ZM451 716V714H456V716H451ZM454 705V700L456 698V696L458
698H465L462 696V694H476V698Q467 698 467 712H460L454 705ZM508 696V691H512L508 696ZM451 691V687L456 691H451ZM391 678L397 674H399V678L395 682L391 678ZM370 676V669H377V676H370ZM436 671L434 664L436 657Q447 657 449 664L442 671H436ZM348 664V662L352
657V664H348ZM429 651V649H438V655H434L429 651ZM127 639L125 628V626H134L139 631V635L134 639H127ZM420 631V626L427 619Q434 621 434 633L431 635H424L420 631ZM404 594V590L409 586L413 592V594H404ZM253 583L251 581V579L260 572H262Q258 582 253 583ZM467
536L465 534V527H472V531L467 536ZM530 529V522H535L539 527V529H530ZM469 516L467 514V511H469L476 514V516H469ZM359 514V507H361V514H359ZM632 502L636 498H641V507H636L632 502ZM242 500V493L251 491V496L247 500H242ZM145 498L149 493H152V498H145ZM557 493L555
491V489L559 484L564 489V491L557 493ZM199 482L197 479V477L199 475H201L204 477V479L201 482H199ZM692 473L694 471H697L704 475L701 482L692 473ZM420 475V473H427V479H424L420 475ZM467 473V469Q474 463 474 446L481 441Q497 448 517 448Q517 453 530 453V459L499
473L487 471L479 479H474L467 473ZM456 464V457H460L465 462L462 464H456ZM591 457V455L609 448H611V453Q611 458 602 459L591 457ZM690 455L688 453V446H694V450L690 455ZM269 448Q273 438 278 437L282 444V448L278 453H276L269 448ZM458 444L462 439L465 441V444H458ZM627
437L625 434V428H632V432L627 437ZM546 417L548 414H555V421H550L546 417ZM661 414V408H667V414H661ZM683 405L690 399L694 405V410H692L683 405ZM411 408V405L415 401L420 405L417 408H411ZM600 396V394L604 389H607V396H600ZM719 389V387H724V394L719 389ZM587
387V381Q598 381 598 376L604 378Q601 389 593 389L587 387ZM679 383V376H683L688 381V383H679ZM420 378L415 371V367L420 363L429 369V376L420 378ZM314 347V344H323V351H319L314 347ZM382 347V340H388V347H382ZM449 344V342H454V344H449ZM456 344V342H460V344H456ZM654
344L652 342V340L656 336H659L661 342L654 344ZM316 331V329H323L325 331V333H323L316 331ZM694 333V329L699 324L704 331V333H694ZM483 324V315H487L492 320L487 324H483ZM715 324L712 322V315H715L719 320L715 324ZM542 320L550 311H553Q549 320 546 320H542ZM409
311L406 309V297Q406 293 413 293L420 295V306L409 311ZM271 297V288L278 291V293L274 297H271ZM323 297L316 286Q323 286 327 259H337Q343 265 379 270L382 272V275Q357 291 348 291L339 288Q335 297 323 297ZM544 291V288H548L555 295L553 297H550L544 291ZM307
281V275H314V281H307ZM542 272L537 266L539 264H542L546 268L542 272ZM686 259L690 254L694 259V264H690L686 259ZM309 261V257H312L316 261H309ZM474 252V246H483V250L481 252V254L474 252ZM535 250V248L537 241L532 236V232H537L539 230L542 232L544 241Q540
250 537 250H535ZM649 250V246H652V250H649ZM375 246Q378 219 388 219L406 236L399 239L393 236L382 246H375ZM510 230L512 223L519 225V227L514 232L512 230H510ZM535 221L537 219V216L546 223L542 227L535 221ZM262 225V219H264L269 223V225H262ZM490 221L487
219V216L490 214H494V216L490 221ZM530 201V194H537V201H530ZM264 184L271 180Q280 182 280 191L274 196Q267 195 264 184ZM562 182V180H566V182H562ZM641 180V176L645 180H641ZM368 176L366 174V171Q372 149 377 149L388 151V162Q388 168 368 176ZM524 167L526
160H530L535 164L528 169L526 167H524ZM505 162L503 160V153H510V158L505 162ZM481 151V144H485V146L481 151ZM546 151V146L550 142L553 144V151H546ZM562 139V137L566 133L571 137L569 139V142L562 139ZM393 137L399 126H402V131L399 137H393ZM258 119V110H264L271
117V119L267 124H262L258 119ZM553 119V117L555 106H559Q565 106 566 117L564 119H553ZM537 76V72H544L546 79L544 81H542L537 76ZM499 68V63H503V68H499ZM226 63L224 61Q229 36 240 36Q249 38 249 49Q235 63 226 63ZM287 54V49H294L289 54H287ZM339 38V36L343
31V38H339Z" />
<glyph unicode="X" glyph-name="X" horiz-adv-x="609" d="M64 809L66 811H271Q275 811 275 800L291 802L293 800V798L286 766L291 712Q291 698 275 661V496H349V807L354 811H554L558 807V499L563 492V479L486 400L563 323V297L558 290Q558 233 581 218H583L576
189L581 157H576V162H572V117Q572 70 581 11Q558 10 558 2L556 0H354L349 4V135Q349 147 396 150L399 153V157L370 173L367 171H358L349 180V292H275V4L271 0H84V9H80L77 7H75L77 4V0H69Q64 0 64 7L62 9H44V11Q55 116 53 137L51 164H48Q48 157 44 157V160L46 191L42
218Q62 218 64 292Q65 357 77 357L102 382Q109 362 114 362Q123 362 127 371Q127 375 111 389V391L125 407L66 465V658L64 809ZM192 677V670H197L201 674V677H192ZM257 667L260 665H266V672H262L257 667ZM194 656L199 652L201 654V656H194ZM361 645V640H365L367
642H370L367 649H365L361 645ZM482 632V629H486V632H482ZM489 629V627H493V629H489ZM471 627V622H473V627H471ZM147 620V618L152 614L154 616H156L154 622L147 620ZM194 614V611L203 600V598L201 595L210 582Q220 591 250 593V607Q232 611 230 616L219 614H217L205
622Q195 618 194 614ZM419 618L426 611L430 618V622H428L419 618ZM482 618V611L491 598H493V604L496 616L489 620L482 618ZM471 598V593H473V598H471ZM414 595V589H419L424 593V595H414ZM471 584L473 577H477V580L473 584H471ZM482 577V575H486V577H482ZM491 577V573L496
577H491ZM469 573L473 569V573H469ZM475 569V564L480 559L482 562V564L475 569ZM473 559V555H475V559H473ZM388 553L392 548L396 553L392 557L388 553ZM448 532V528H451L455 532V537H453L448 532ZM142 508L149 506L156 508V519H152V521Q142 519 142 508ZM158 483V481H163V483H158ZM167
481V479H172V481H167ZM421 472L426 467L430 472V476H426L421 472ZM111 474L107 467V463H109L118 467L111 474ZM167 465Q167 453 176 449H179V451L176 454V456L181 463L179 470H172L167 465ZM271 463V461L280 451V456L273 463H271ZM158 454V451H163V454H158ZM100
443V441H104L109 445L107 447H104L100 443ZM156 436V434L163 427L165 429V431L156 436ZM167 436V431L170 429H172L170 436H167ZM176 429L174 427V425H181L176 429ZM156 425V420H158V425H156ZM160 420V413L165 409V416L160 420ZM170 420V418H174V420H170ZM167 411V407H170V411H167ZM325
409V400L333 398L336 400V404L331 409H325ZM316 391Q321 378 325 378H333Q333 393 316 393V391ZM376 393V389L381 393H376ZM134 386V380H140V386H134ZM262 382V373H266L271 378L264 382H262ZM165 380V375H170V380H165ZM307 371L302 364V362L307 357L318 360V366L307
371ZM217 364V357H221V360L217 364ZM289 333V326L295 319L302 326V328L298 333H289ZM107 326V323L111 319L116 323L114 326V328L107 326ZM399 225L401 222V220L408 222V225L403 229L399 225ZM504 207L500 200L502 198H509V202L504 207ZM424 191V184H428L433 189L430
191H424ZM561 175L563 169Q569 171 569 182L561 175ZM459 157V153L477 146L480 148V153L473 160L459 157ZM556 153V146H563V153H556ZM493 135V130L498 126H500L502 132L500 135H493ZM417 122V112H419L424 117L419 122H417ZM529 112V106H536V112H529ZM558 110L554
103V99H556L565 106L558 110ZM471 97L469 94V90H475V92L471 97ZM455 83Q455 78 471 76L473 79L464 90Q455 87 455 83ZM547 79L552 74L556 79L552 83L547 79ZM84 79V76L89 72L93 76V79H84ZM160 79V74H163V79H160ZM185 52L190 47L194 52V56H190L185 52ZM109 38L114
34H116L118 41L116 43H114L109 38ZM520 38V36H524L529 41L527 43H524L520 38ZM563 29V25H567V34L563 29ZM253 31L246 22L248 20H250L257 27L253 31ZM459 20L466 18L469 20V22L466 25H464L459 20ZM412 20V18L417 9H421V11L417 20H412Z" />
<glyph unicode="Y" glyph-name="Y" horiz-adv-x="572" d="M351 820L429 811H535L434 415Q430 341 420 341L409 276Q409 264 423 249Q403 225 403 181V143L398 137L403 132V4L398 0L328 2L331 14V16H319V11L324 4V2H290L178 0L176 2V296Q171 328 87 639Q107 642
107 646Q107 658 80 666L42 809L44 811H219Q220 811 248 699L277 583L266 585L261 580V576Q274 575 281 569H284L292 585V587L284 601L292 625L304 623H306V630L304 636H306Q315 636 322 673Q304 698 304 713V726Q332 820 351 820ZM113 719V717L118 713L122 717L120
719V722L113 719ZM181 719L185 715V719H181ZM189 719V715H192V719H189ZM214 693L219 688L223 693V697H219L214 693ZM138 679L140 677V675L147 677V679L142 684L138 679ZM335 679V677H342V679H335ZM344 679V677H349V679H344ZM324 675V673H328V675H324ZM335 666V661Q345
646 349 646V650L346 652V654L349 663V668H346L335 666ZM131 659V652H138V659H131ZM196 654V648H201L205 652L203 654H196ZM178 646Q181 639 192 639H194Q194 647 187 652Q178 649 178 646ZM324 646V643H328V646H324ZM133 639V636H140L142 639V641H140L133 639ZM326
632L328 625L333 630L331 632H326ZM335 625V623H342V625H335ZM344 625V623H349V625H344ZM221 616V610H226L230 614L228 616H221ZM331 616V612L335 608V616H331ZM418 614V612H423V614H418ZM427 612V610H431V612H427ZM326 610V605H328V610H326ZM337 610V605H340V610H337ZM407
610V608H411V610H407ZM133 598Q141 571 147 565L163 574H183Q189 574 189 583Q189 590 165 598L156 596L142 605Q133 602 133 598ZM243 605V598H250V605H243ZM358 598L360 596V594L369 601L364 605L358 598ZM423 605L418 601Q423 580 429 580H431L429 587L431 601L425
605H423ZM302 580V578H310V585H306L302 580ZM407 580V578H411V580H407ZM353 578V572H360V578H353ZM423 576V574H427V576H423ZM409 567V565L413 560V562L409 567ZM420 567V562H423V567H420ZM418 560V558H423V560H418ZM427 560V556H431V560H427ZM407 556V554H411V556H407ZM413
552V542H418V547L413 552ZM328 540L326 538V531H328L333 536L328 540ZM277 524V518H281L286 522V524H277ZM268 522L266 520V516H272V518L268 522ZM385 516L389 511L393 516L389 520L385 516ZM127 513L125 511V509L133 502H135Q131 512 127 513ZM178 455L181 448H187L192
453L185 459L178 455ZM360 455V451H367L369 457L367 459H364L360 455ZM208 446L214 435H219L214 446H208ZM232 444V437H234V444H232ZM171 439Q177 426 181 426H189Q189 441 171 441V439ZM160 419L158 417V410Q158 406 165 406L174 413Q171 419 160 419ZM261 388L268
381H272V385H274L272 392H266L261 388ZM252 377L264 359L272 363Q272 373 252 377ZM313 372H317V377L313 372ZM201 365L198 363V361L203 356H208V363L201 365ZM241 352V341H250L257 347L248 354L241 352ZM228 316V312H226Q229 302 232 302H236L239 314V316H228ZM187
278L189 276H196V282H192L187 278ZM254 278V271H261V278H254ZM328 276V274H333V276H328ZM189 262V260H196L198 262V264H196L189 262ZM355 256V251L360 247L364 251L360 256H355ZM281 242L279 240V233H286V238L281 242ZM196 229L189 217Q196 217 201 191H210Q216
196 252 202L254 204V206Q229 222 223 222L212 220Q208 229 196 229ZM270 213L272 211V208L279 211V217H274L270 213ZM181 213V206H187V213H181ZM337 213V206H344V213H337ZM317 206V202L333 197H335V199Q332 208 328 208L317 206ZM272 193H274Q284 196 284 199H281L272
193ZM183 193V191H189L192 193V195H189L183 193ZM346 181L351 177H355V181L351 186L346 181ZM362 175V168H369V175H362ZM270 170V163H274L279 168L277 170H270ZM272 150Q281 150 281 128L290 123L306 132L324 125Q324 135 335 135L337 141Q309 157 290 157L284
163Q272 160 272 150ZM382 159L385 157H391V163H387L382 159ZM228 161V155H230L234 159V161H228ZM266 148L261 141L264 139H266L270 143L266 148ZM266 123H268L272 128H270L266 123ZM353 101L358 97L362 103L360 105H358L353 101ZM378 94L375 92V85H382V90L378
94ZM219 92V85H226V92H219ZM317 76L315 74V69H322V72L317 76ZM266 69L272 58H274V63L272 69H266ZM221 49L223 47H230L236 54L234 60H228Q222 60 221 49Z" />
<glyph unicode="Z" glyph-name="Z" horiz-adv-x="605" d="M57 813L550 809V667L566 624L562 619V561Q562 543 580 527L570 498V469H566V473H562Q550 423 550 342L552 322Q550 304 546 304H278V227H546L550 223V56L546 52L550 41L544 34H541V31H548V29L546 27L548
25V20L544 14Q547 14 550 2L548 0H350Q345 0 345 7H343Q336 0 294 0H226Q226 9 222 9L219 7H217L219 4V0H57Q52 0 52 25Q32 48 32 61V63L44 169L42 219L52 234Q52 242 35 272Q35 341 52 424V479L50 507L52 509H323V588H251V590L253 601L251 604H244L240 599L242
588H57L52 592V809L57 813ZM118 633V628L122 624L127 631L125 633H118ZM240 615V612H244V615H240ZM249 615V612H253V615H249ZM228 610V606H230V610H228ZM183 608L179 601L181 599V597L190 604L183 608ZM183 462L179 455L181 453H188V457L183 462ZM82 392V387L87
383H93V389L89 394L82 392ZM73 378V376Q79 361 84 360H91V363Q91 375 73 378ZM134 378V374H138V378H134ZM62 354V344L66 340L75 347L68 354H62ZM46 311Q49 302 52 302Q59 304 59 315L57 317H50Q46 317 46 311ZM93 219L91 216V209H95L100 214V216L93 219ZM156 207L159
205H161L165 209V212H161L156 207ZM93 194H97L102 198H97L93 194ZM260 189V180H267V189H260ZM181 171L185 167L190 171L185 176L181 171ZM325 164L318 156L321 153H323L330 156V160L325 164ZM46 158V156H55L52 162H50L46 158ZM93 153Q100 145 100 131L107 124Q127
133 156 135V142Q132 156 122 156L116 153Q111 162 102 162Q95 160 93 153ZM82 146V139H91V146H82ZM217 139V137L230 131H235L240 135L230 144L217 139ZM314 133L318 128H321L323 135L321 137H318L314 133ZM84 126V124H91V126H84ZM251 115V110H255L260 115L255
119L251 115ZM174 104V97H181V104H174ZM287 97V90H292L296 94L294 97H287ZM312 86L316 81Q316 86 323 86V88L318 92L312 86ZM535 90V88H539V90H535ZM532 83V79H535V83H532ZM226 74L228 72H230L235 76L233 79H230L226 74ZM212 65L226 61H230V63Q227 72 224 72H219L212
65ZM305 61L307 59H309L314 63V65H309L305 61ZM517 59L519 56H525V63H521L517 59ZM535 61V59H539V61H535ZM532 54V49H535V54H532ZM532 43V41L535 34H539V36L532 43ZM532 29V25H535V29H532ZM278 23L282 18L287 23L282 27L278 23ZM537 25V23L539 16L541 18H544L541
25H537ZM321 11V9H325L330 14V16H325L321 11Z" />
<glyph unicode="[" glyph-name="bracketleft" horiz-adv-x="318" d="M37 486V484H41V486H37ZM74 463V458L78 453H83V463H74ZM111 428L116 423L123 430L120 437L111 428ZM104 399V397L111 395L113 397V404H109L104 399ZM74 355L76 353H83V360H78L74 355ZM41 341L39
339V334H46V337L41 341ZM113 271V262H120L123 269L120 271H113ZM34 191L41 184H44L48 189V191L44 196H39L34 191ZM62 180V175H67V180H62ZM44 9L48 5L53 9V14H48L44 9ZM202 7V2H205V7H202ZM132 612L127 607L129 605Q129 601 125 603L132 612ZM45 603L50 607L54 603V598H50L45
603ZM204 605V610H206V605H204ZM34 612L260 613L263 494L143 496Q130 496 130 487Q130 484 132 478T134 468Q134 435 135 388T137 308V173Q137 163 142 140T146 103H252L256 98V5L252 0H130L125 5L127 7Q127 11 123 9L113 2Q108 2 32 0L30 2V9Q30 18 25 33T19 56L20
61L25 68L24 106Q24 122 27 145Q23 154 25 170H30L32 161H46Q46 172 25 184Q25 200 11 231Q22 283 20 332H25V323H27Q31 351 30 402Q31 402 50 397L53 399Q48 412 39 411L32 406H30V608L34 612Z" />
<glyph unicode="\" glyph-name="backslash" horiz-adv-x="621" d="M146 590L147 587L152 589L150 592L146 590ZM193 578L196 572L203 568L208 570L202 582L193 578ZM275 565L283 561L285 572L279 580L275 565ZM285 527L286 525H294L295 529L291 537L287 535L285
527ZM282 461L286 459L292 462L288 470L284 468L282 461ZM232 417L231 413L234 407L240 410L239 413L232 417ZM366 376L372 365L378 368L376 377L373 379L366 376ZM310 232L321 227L323 228L324 236L323 239L316 242L312 240L310 232ZM370 244L373 238L377 240L375
246L370 244ZM422 16L428 13L430 20L427 26L423 24L422 16ZM88 735L90 742L96 739L99 733L95 731L88 735ZM72 742L191 797L198 793L212 761Q219 744 239 715T266 670Q284 631 316 551T367 431L443 267Q459 246 486 199L492 186L487 177L493 174L546 60L545 53L506
42L499 46L500 49L495 50L490 38Q475 34 455 22T416 0L413 2L409 11Q420 27 415 36Q411 45 394 49T373 62L371 68V79L349 125Q340 145 330 173Q321 184 313 203L318 205L325 195L338 201Q331 215 305 220Q296 240 266 271Q250 330 218 396L222 398L227 387L229
388Q218 424 187 485L209 489L210 492Q199 506 190 501L186 492L184 491L71 734L72 742Z" />
<glyph unicode="]" glyph-name="bracketright" horiz-adv-x="318" d="M290 486V484H286V486H290ZM253 463V458L248 453H244V463H253ZM216 428L211 423L204 430L207 437L216 428ZM223 399V397L216 395L214 397V404H218L223 399ZM253 355L251 353H244V360H249L253
355ZM286 341L288 339V334H281V337L286 341ZM214 271V262H207L204 269L207 271H214ZM293 191L286 184H283L279 189V191L283 196H288L293 191ZM265 180V175H260V180H265ZM283 9L279 5L274 9V14H279L283 9ZM125 7V2H122V7H125ZM195 612L200 607L198 605Q198 601 202
603L195 612ZM282 603L277 607L273 603V598H277L282 603ZM123 605V610H121V605H123ZM293 612L67 613L64 494L184 496Q197 496 197 487Q197 484 195 478T193 468Q193 435 192 388T190 308V173Q190 163 185 140T181 103H75L71 98V5L75 0H197L202 5L199 7Q199 11 204
9L213 2Q219 2 295 0L297 2V9Q297 18 302 33T307 56V61L302 68L303 106Q303 122 300 145Q304 154 302 170H297L295 161H281Q281 172 302 184Q302 200 316 231Q305 283 307 332H302V323H300Q296 351 297 402Q296 402 276 397L274 399Q279 412 288 411L295 406H297V608L293
612Z" />
<glyph unicode="_" glyph-name="underscore" horiz-adv-x="540" d="M461 106V4L456 0H333V2L335 4V6L326 11L323 9H321L326 0H247L212 -7Q208 0 195 0H166V2L169 8L166 9H159L162 0H46L41 4V101L53 110H79Q79 117 93 125H150L195 112Q195 117 219 121L273 119L387
125Q404 125 435 110H456L461 106ZM387 95H385V91H387V95ZM359 65H354V58H363V61L359 65ZM309 97H300L297 84L300 82Q311 85 311 91L309 97ZM300 17L295 13V9H304V13L300 17ZM257 41L250 39V33H259V37L257 39V41ZM240 91L238 93H233V88H236L240 91ZM88 97L81 95V89L86
86H88L93 89V93L88 97ZM76 104H74Q55 101 55 93L60 88Q76 92 76 104ZM76 50H69L74 47L76 49V50Z" />
<glyph unicode="`" glyph-name="grave" horiz-adv-x="292" d="M183 812Q194 784 237 628L236 626L99 632L45 813L49 817H64Q92 817 92 806Q97 807 99 815L183 812ZM153 766H152L148 763V757L153 756V757H157V763L153 766ZM68 764V763L71 759H73V763L68 764ZM76
763V759H80V763H76ZM120 722V717L124 714H125L131 717L127 724L120 722ZM134 646L129 640L132 635L139 637V640L134 646Z" />
<glyph unicode="a" glyph-name="a" horiz-adv-x="473" d="M62 608L64 611H363L370 606H372L379 611H410L414 606V587L428 539L417 417L419 387V382L414 345V336L421 311L417 263L419 253Q419 187 403 187V184Q403 180 412 180L414 177V124L410 117L414 111V4L410
0H407Q407 11 398 11V14Q392 14 389 0H336Q331 0 331 7H324L317 2H308L301 4Q275 0 211 0H66Q62 0 59 14Q44 14 34 37L38 120Q39 137 29 149L52 265L57 354L59 357L186 359H278V495H227Q222 495 221 504L211 497H202L64 495L62 497V502Q62 507 69 507V514L64 521L62
608ZM202 601L200 599V597L211 587V592L202 601ZM108 555L112 551V555H108ZM117 555V551H119V555H117ZM260 537V535L264 530H269L274 535L271 541H264L260 537ZM145 528V523H154V528L149 532L145 528ZM317 525V518L322 523L319 525H317ZM193 511L191 509V507L195
502H200V509L193 511ZM85 504L87 502H89L91 504V509H89L85 504ZM214 339V334H221L223 341L221 343H218L214 339ZM343 343V336H347L352 341L350 343H343ZM221 285L223 283V281Q210 235 205 235H101V233Q186 176 186 168L156 71H158L241 131L326 71V73L297 173Q358
216 363 216T382 235H278Q271 237 271 249L274 251Q268 251 267 260L269 272Q261 272 243 334Q240 334 225 288L223 285H221ZM274 288Q275 269 281 269L294 274H301V281L274 288ZM105 265V263Q105 259 115 256L119 263L117 269H110L105 265ZM407 265L412 260V265H407ZM163
253V247L167 251L165 253H163ZM66 184Q68 170 73 170H75Q79 170 82 182L73 187L66 184ZM207 87V85H216L223 92Q219 101 216 101Q207 99 207 87ZM115 71V69H124V76H119L115 71ZM188 71V64H193L198 69L195 71H188ZM262 69V66H267V69H262ZM117 51H122L126 55H122L117
51ZM299 46V41L303 37H308V46H299ZM347 39L345 37V35L350 30L345 23V21L350 16H354L357 32L347 39ZM214 25L216 23H223V30H218L214 25ZM239 23V18H246V23H239ZM366 11V7H370L377 14L375 16V18Q366 15 366 11ZM66 14L69 7H71L75 11L71 16L69 14H66Z" />
<glyph unicode="b" glyph-name="b" horiz-adv-x="448" d="M190 612L194 608V361H407L412 356V7L407 2H405L384 5L375 2Q372 11 361 11Q352 0 324 0H63Q59 0 56 21Q42 21 33 69L42 192L40 229Q39 246 54 257Q38 291 38 303V330Q38 370 58 504V522L51 550V557L58
585V594Q51 594 51 598L60 612H190ZM164 580V578L169 573L171 575V580H164ZM100 497L111 485V490L104 497H100ZM160 437V432Q160 429 169 425L174 432L171 439L160 437ZM151 418Q156 403 162 402H167L171 406Q171 418 151 420V418ZM93 409L90 406V400L100 397V402L93
409ZM139 395L137 393V386L141 381L153 384V388Q151 395 139 395ZM121 349Q125 338 130 337L137 351L130 356H128L121 349ZM116 226L100 224V222Q108 221 183 162L153 65L234 122H239L322 62V65L319 72L322 74H324Q311 85 289 164L349 208L361 206H363Q363 222
372 222V224H273Q266 224 239 323Q235 323 204 226H116ZM169 240V238H178V245H174L169 240ZM317 238V236H322V238H317ZM121 180L125 176L130 180L125 185L121 180ZM160 164L164 160H169V169H164L160 164ZM310 160V157L329 150L331 153H333Q329 163 324 164H319L310
160ZM79 146V141H83L88 146L83 150L79 146ZM164 146V141H167L174 148H171L164 146ZM155 146L151 139L153 136H160V141L155 146ZM345 136V132L349 127L354 132V136H345ZM81 127L86 122L90 129H88L81 127ZM384 108L389 104L393 108V113H389L384 108ZM111 106V104L116
99H121V104L118 106V108L111 106ZM107 95V90L111 86L116 92L114 95H107ZM322 95L319 92V88H326V90L322 95ZM329 86L331 79H333L342 83L338 90L329 86ZM218 69V60L239 56H241V60L232 69L229 67H227L218 69ZM324 60V53H331L333 60L331 62L324 60ZM132 51L135 44H137L141
49V53H137L135 51H132ZM285 37V32L289 28L296 35L294 42L285 37ZM176 11Q177 5 194 5Q194 17 187 18H183L176 11ZM294 14V9H299L303 14L299 18L294 14ZM310 16V14L315 9H317V16H310ZM278 7L287 5V11H282L278 7Z" />
<glyph unicode="c" glyph-name="c" horiz-adv-x="455" d="M63 612H408L413 608V458L408 453H281L276 458V504H225Q225 513 221 513Q216 513 216 506Q195 505 195 497L198 266L195 247L205 236L195 201V111H276V148L281 155L278 157L281 160H364V157L361 150L364
148H366Q371 148 371 160H408L413 155V7L410 5V2L225 0H63Q59 0 59 21Q36 47 38 69L47 192L45 229Q48 254 59 254L43 298V330Q43 374 59 472V504L56 559L59 596L56 598V601Q59 612 63 612ZM179 601V592H186V601H179ZM112 580V578L114 576V573L121 576L117 580H112ZM244
578V571H253V578H244ZM108 434L110 432L114 427V425L121 427V434Q121 439 114 439L108 434ZM165 423V416H170V418L165 423ZM98 418Q104 403 110 402H114L119 407Q119 418 98 420V418ZM84 391V386L89 381L101 384V388L94 395H89L84 391ZM68 349L75 340H77Q83 340
84 351L77 356H75L68 349ZM117 240L119 238H126V245H121L117 240ZM121 219H124L128 224H126L121 219ZM68 183L70 176H73L77 180L73 185L70 183H68ZM121 178Q130 145 135 143H142Q153 155 188 155L191 157V162L156 178L144 176L135 185H128L121 178ZM110 169L108
162L110 160H117L119 167L117 169H110ZM112 146V143H119L121 146V148H119L112 146ZM292 136V129L299 127L302 129V134L299 136V139L292 136ZM332 109L334 106H341V113H336L332 109ZM59 106L61 99H68V104L66 106V109L59 106ZM359 102L364 97L371 104L366 109L359
102ZM269 95L267 93V88H274V90L269 95ZM399 88V83H403L408 88L403 93L399 88ZM253 81V76L264 74H271V76L262 88Q253 84 253 81ZM357 81L352 74L354 72H361V76L357 81ZM63 60L70 58Q80 60 80 67L77 74H70Q63 72 63 60ZM327 37L325 35V28H332V32L327 37ZM371 25V16H378L380
23L378 25H371ZM257 16V14L262 9L267 14L264 16H257ZM389 14V9L392 7V5L399 7V14H389Z" />
<glyph unicode="d" glyph-name="d" horiz-adv-x="437" d="M260 612H387L394 605L389 601L394 596V418L401 316V291L392 259V238L399 222L396 185V162L385 164L380 160L378 162H375V157Q399 157 403 95L406 58L389 2L216 0H43L38 5V356L43 361H246Q255 361 255
393V608L260 612ZM297 596V592H302L306 596L302 601L297 596ZM361 573L366 569L371 573V578H366L361 573ZM334 511V504H343V508L341 511V513L334 511ZM283 420V416H288V420H283ZM191 356L188 354V351L191 340H195L202 347V354L191 356ZM89 222L163 164L135 76L174
104H177L184 99H186L184 111L209 129H214L288 76V79L267 148Q272 153 309 155V160Q309 165 278 176V178L334 222H264Q237 222 237 236L246 243V245H232L214 310Q209 308 181 222H89ZM309 236L313 231L318 236V240H313L309 236ZM336 199V194L338 192V190L345 192V199H336ZM327
118V113H332L336 118L332 122L327 118ZM387 95L385 93V88H394V93L387 95ZM371 81V76Q382 76 382 72L389 76L380 88L371 81ZM181 65L184 58H186L198 60V69L193 74H188L186 72L184 65H181ZM375 11L378 9H380L385 14L382 16H380L375 11Z" />
<glyph unicode="e" glyph-name="e" horiz-adv-x="453" d="M54 612H285L292 608H295L302 612H399L403 608V257L399 252H191L186 247V115H251L274 113L276 115L283 104H288L285 115H288L359 113L389 115V113L387 111L389 104H392Q396 104 396 115H399L403 111V5L399
0H329Q329 11 318 16H313V5L309 0H274L262 11L258 7Q264 7 264 2L262 0H228L223 5Q198 0 144 0H54L45 11L50 18V30L45 56V58L50 83V136Q36 238 36 273V309L50 354V356L41 374L43 430L36 543L50 587V608L54 612ZM124 603L122 601V598L133 589V594L124 603ZM237 601L235
598V591H242V596L237 601ZM167 580V578L172 573H174V580H167ZM299 578V573L302 571V569L309 571V578H299ZM232 573Q203 472 198 472H94V469Q162 424 179 406L149 309H151L223 361H239Q257 361 267 337Q275 337 318 307H320L295 390V411Q304 424 373 469V472H269Q264
472 235 573H232ZM115 513L112 510V508L117 504H122V510L115 513ZM271 508V506L276 501L281 508L276 513L271 508ZM103 497L115 485V490L108 497H103ZM63 492V485H68V492H63ZM94 406V404L101 397H103V406H94ZM45 388V381H50V388H45ZM124 349Q128 338 133 337L140
351L133 356H131L124 349ZM375 319V314L380 309H385V319H375ZM290 298L292 296H299V303H295L290 298ZM142 284L144 282H151V284L147 289L142 284ZM181 268L186 264L191 268V273H186L181 268ZM255 268V259H262L264 266L262 268H255ZM172 240L174 238H181V245H177L172
240ZM140 178L138 167Q138 162 144 162Q151 163 154 171L151 178H140ZM165 169L163 162L165 160H172L174 167L172 169H165ZM167 146V141H170L177 148H174L167 146ZM54 120V113H61V120H54ZM119 108L115 102L117 99H124V104L119 108ZM84 106L82 104V97H89V102L84
106ZM128 88V86H138L144 92V95L138 102Q128 99 128 88ZM325 95L323 92V88H329V90L325 95ZM309 81V76Q320 76 320 72L327 74V76L318 88Q309 84 309 81ZM119 60L122 58H128L135 65V67L128 74H126Q119 72 119 60ZM336 51L343 44H348L350 53L348 56H341L336 51ZM269
39L267 37V35L271 30L267 23V21L271 16H276L278 32L269 39ZM327 39V35Q333 21 336 21H348V23Q348 33 327 39ZM394 39V35H399V39H394ZM382 37L378 30L380 28H387V32L382 37ZM94 32Q99 5 103 5H112Q119 7 119 18L103 32H94ZM160 23V18H167V23H160Z" />
<glyph unicode="f" glyph-name="f" horiz-adv-x="446" d="M59 612H403L408 608V501L403 497H191V494Q191 388 202 374L195 363H200L406 361L408 358V257L403 252H191L188 2L181 5L170 2L160 11H153L142 0H56L47 11L52 18V30L47 56V58L52 83V132L56 139Q38 202
38 273V309L52 354V356Q43 368 43 381L68 393H84L91 402Q91 413 59 418L52 416L45 427L38 543L54 589V608L59 612ZM61 550L66 545L70 550V555H66L61 550ZM144 552V548L149 552H144ZM174 529L172 522L174 520H179L181 522H184L181 529H174ZM89 513V504H94L98 508L94
513H89ZM98 481V474H103L108 478V481H98ZM133 472V467L149 465H151V467Q147 477 142 478H140L133 472ZM126 439V432H133V439H126ZM137 406V402H146L142 406H137ZM170 400V397Q170 393 181 390L188 393Q184 403 179 404H174L170 400ZM239 349L241 347H248V354H244L239
349ZM241 335V330H246L250 335L246 340L241 335ZM174 335V328H181V335H174ZM306 333V323H311L315 328L311 333H306ZM75 326V323L84 312V316Q82 324 75 326ZM135 266L133 259L140 254H146V261L142 266H135ZM278 266V257H285L288 266H278ZM110 252L121 240V243L114
252H110ZM124 247Q132 229 137 229L144 231Q144 247 124 247ZM63 231L68 226H70L75 231L68 236L63 231ZM112 222L110 215L112 208H114L126 210V219L114 222H112ZM170 187L177 180H179L184 185V187L179 194Q170 191 170 187ZM94 178L98 167H103Q110 169 110 180L108
183H101L94 178ZM160 174L167 157H181Q181 176 160 176V174ZM101 162V157L105 153H110V157L105 162H101ZM151 150L146 143V136L153 134Q163 138 163 141V143Q163 149 151 150ZM130 104Q135 94 140 92L146 102L144 108H135L130 104ZM144 72V65H149L153 69V72H144ZM146
51V46H149L156 49V53L146 51ZM96 11V7L101 2L103 5V11H96Z" />
<glyph unicode="g" glyph-name="g" horiz-adv-x="446" d="M62 612H400L404 608V460L400 456H275L271 460V506H196L191 501V474Q191 394 202 368Q191 361 191 349V288L194 263L191 233V132L187 127V129L184 127H173L160 136Q148 132 148 122Q156 122 160 95L166
93L182 102H198L209 104V116L214 120H264L259 188H219L214 193V265L219 270H377Q383 270 386 250L393 247L404 250V236H402L400 238H398L393 231L404 229V136Q393 135 393 129L395 127V125L398 127H404V100H409V77L420 38Q412 38 402 0H400L320 11H107V14L110 16V18L107
25H96Q96 11 76 11H55L51 16Q51 21 57 21V27L51 59V63L57 91V113Q76 113 76 125Q76 129 55 145Q42 229 42 272V309L57 354Q52 354 46 372L49 429L42 538L57 583V608L62 612ZM146 449L150 444L155 449V454H150L146 449ZM148 431V429H157L160 431V433H157L148 431ZM98
390L103 385L107 390L103 395L98 390ZM94 279V270H103L110 277L103 284V286Q94 282 94 279ZM400 267H404V265H400V267ZM232 225L230 222V220L241 211V213Q237 223 232 225ZM146 191L150 186H155V191L150 195L146 191ZM298 184H302V188L298 184ZM150 172V168H153L160
175H157L150 172ZM289 161V159Q289 155 298 152L302 159L300 166H293L289 161ZM327 163V159L332 154L337 159V163H327ZM345 149V143L350 147L348 149H345ZM280 145Q285 131 291 129H295L298 132H300Q300 146 280 147V145ZM98 134V132L103 127H107V129L103 134H98ZM116
129L118 127H121L123 129V134H121L116 129ZM268 122L266 120V109H275L282 116Q280 122 268 122ZM286 107L302 100L305 102V107L298 113H293L286 107ZM386 107V100H395V107H386ZM250 82V75L257 68H261L264 80Q264 84 257 84L250 82ZM357 63V61L361 57H366V61L364
63V66L357 63ZM293 45V43L298 38H300V45H293Z" />
<glyph unicode="h" glyph-name="h" horiz-adv-x="449" d="M56 612H183L187 608V527L183 522L187 508V497H185L183 499H181L178 497V490H187V432H190V439H194V406L204 374Q200 365 197 365H194L192 368L185 365V361L190 354V340H400L405 335V5L400 0H379Q379 17
356 25L354 18L359 5L354 0H338L340 11H333V0H273L268 5V231H187V5L183 0H121V5L160 9V16L139 28L128 32L114 30L104 39Q90 39 90 25Q100 22 100 9H97L100 7V5L95 0L93 2L77 0H56Q48 2 49 14L51 39L49 49L51 97V150L47 194L54 201V208Q40 208 40 261V309L51 344V354L45
374L47 430L40 531L42 534V536L40 545L51 580V608L56 612ZM81 580V575H86L81 580ZM121 557L116 550L123 545L128 552L121 557ZM77 499V494L93 492H95V494L86 506L77 499ZM148 451V446H153L158 451L153 455L148 451ZM81 434V432L86 427L90 432V434H81ZM77 289Q79
280 88 280L90 282V289L86 293H83L77 289ZM67 275Q76 257 79 257H88V259Q88 275 67 275ZM135 275V271H139V275H135ZM54 243L56 236H65L72 243V245L63 250H61L54 243ZM88 99V92H93L97 97V99H88ZM160 90L164 86L169 90V95H164L160 90ZM90 74H95L100 79H95L90 74ZM273
69L271 62L273 60H278L282 65L278 69H273ZM345 42L338 35L340 28Q351 32 352 37L345 42ZM79 18V14H83L88 18L83 23L79 18Z" />
<glyph unicode="i" glyph-name="i" horiz-adv-x="237" d="M71 612H168Q184 612 201 596L199 561V514L194 510Q173 558 173 573H171Q154 510 147 510H85L126 475V472H99Q51 472 45 486L50 493V517Q45 526 38 526V531Q45 538 45 552H47L50 549H52L61 580V594L71
612ZM66 412H194L199 407V286H196L194 289H192L185 279L187 277V275L199 279V202L208 168Q199 164 199 151V123H196L189 126L187 123V116L199 119V5L194 0H73L61 12V37Q52 37 43 51V107L59 151Q52 151 47 175L50 228L43 340Q42 356 61 386V407L66 412ZM80 340V337H85V340H80ZM117
312V307H126V316H122L117 312ZM78 263V254L94 251L96 254Q92 265 85 265L78 263ZM178 254L182 249H187V258H182L178 254ZM147 212L150 205H157V214H152L150 212H147ZM85 195L82 193V188H89V191L85 195ZM78 47L80 40H87L92 44V47L87 51H82L78 47ZM68 35V33Q73 14
82 14L89 19Q84 35 68 35ZM136 35V28L140 33L138 35H136Z" />
<glyph unicode="j" glyph-name="j" horiz-adv-x="308" d="M248 613Q262 613 278 594L276 578V515L271 511Q265 511 250 571Q246 571 227 511H162V506Q179 498 204 476V474H178Q123 474 123 487L127 515L114 531Q123 540 123 552Q137 552 137 575V592L144 613Q165
634 193 634Q222 634 248 613ZM262 413L267 408V290Q257 290 253 281L260 276L264 281L267 278V246H269V253H274V220L283 186Q269 174 269 156V86L274 79L267 51V5L262 0H146Q136 9 127 9H125Q125 2 120 2L44 0L42 2V109L46 114H118V121L130 162V167L123 190L125
246L118 357Q130 395 130 410L132 413H262ZM187 318V309H192L197 313L192 318H187ZM146 260Q148 253 160 253H164V257L155 267H153L146 260ZM248 255V250H253L257 255L253 260L248 255ZM218 211L222 206L227 211L222 216L218 211ZM150 190H160V195H155L150 190ZM255
123L260 118H264V128H260L255 123ZM148 49V46L153 42H160V53H153L148 49ZM139 37V35Q139 22 150 16L160 18Q152 37 139 37ZM204 32V30H208V37L204 32Z" />
<glyph unicode="k" glyph-name="k" horiz-adv-x="473" d="M80 612H210L214 608V501L210 494L214 490V427Q214 420 205 420V413Q214 413 214 406V356L210 349L214 342V273H217L295 451L318 448H427L429 446H431L320 194H427L431 190V5L427 0H300L295 5L298 7L295
18V136Q287 125 233 2L230 0H80Q76 0 76 25Q52 41 52 76V81L57 88V190Q57 222 43 254L52 305V351H57V340H59L66 423H73V406L78 402H85L99 411H119L126 418V423Q126 430 97 437L87 434Q80 446 69 446V451Q69 476 76 485L71 490L73 598Q76 612 80 612ZM133 494V492H142V499H138L133
494ZM161 458V451H170V458H161ZM318 446Q318 441 311 441V439L316 434L325 441L318 446ZM307 416V409H314V416H307ZM277 372V365H281L286 370L284 372H277ZM341 347V342H351V347L346 351L341 347ZM314 280L318 275L323 280V284H318L314 280ZM147 271V268L156 259H159Q154
269 149 271H147ZM207 210V203L212 199H214L219 203V210H207ZM196 192Q202 177 207 176H219Q212 194 196 194V192ZM263 194V190H267V194H263ZM135 178L138 171H142L147 176L140 180L138 178H135ZM390 176Q397 150 401 150H408L415 157V164Q415 168 397 180L390
176ZM182 157L189 153Q199 157 201 162L191 169Q182 167 182 157ZM87 160V155H94V160H87ZM168 127V118L175 111Q182 113 182 125L180 127H168ZM217 18V9H221L226 14L221 18H217ZM365 11V7H367V11H365Z" />
<glyph unicode="l" glyph-name="l" horiz-adv-x="318" d="M61 612H190L194 608V559L204 503L194 309L199 250L194 191V173L204 124V103H279L283 98V5L279 0H157L153 5L155 7L153 9H150L141 2H129L59 0L57 2V23L47 52V61L52 68V135L54 145L52 154V170H57L59 161H73Q73
172 52 184Q52 200 38 231L47 290V332H52V323H54L57 351V402H59L78 397L80 399Q76 410 71 411H66L59 406H57V608L61 612ZM64 486V484H69V486H64ZM101 463V458L106 453H111V463H101ZM169 428L174 423L181 430L178 437L169 428ZM162 399V397L169 395L171 397V404H167L162
399ZM132 355L134 353H141V360H136L132 355ZM69 341L66 339V334H73V337L69 341ZM171 271V262H178L181 269L178 271H171ZM61 191L69 184H71L76 189V191L71 196H66L61 191ZM120 180V175H125V180H120ZM71 9L76 5L80 9V14H76L71 9ZM229 7V2H232V7H229Z" />
<glyph unicode="m" glyph-name="m" horiz-adv-x="670" d="M54 612H147V605H149L156 610H621V550L630 494L621 314L623 252L621 167L627 134V37L621 28V5L616 0H609L607 2L604 0H556Q551 0 551 7L549 9H546Q544 2 533 2H521Q521 14 517 14Q517 0 498 0H489L484
5V35Q472 48 472 58L477 65V102L482 106H484L486 104H489L491 106V111L489 113V115L486 113H479V160Q479 206 465 224L475 289V323H479V319H482L484 358V499H415V497L408 309L410 236L403 199V187L415 125V39L403 25V5L399 0H271L267 5V42Q260 50 260 58L264 65V176Q264
202 251 231L264 245V250L258 257L260 280V330H264V319H267V499H200L191 305L195 247Q193 219 186 199V187L200 122V46Q197 28 186 28V5L181 0H54L50 5V28L45 53V58L50 65V167Q50 198 36 231L45 282V305H50V293L57 287H63L70 293Q70 310 45 316V330H50V608L54 612ZM327
596L332 591H336V601H332L327 596ZM244 585V578H248L253 582L251 585H244ZM401 573Q401 569 394 569V566L399 562L406 564V569L401 573ZM96 571V566L101 562L103 564V571H96ZM147 564V559Q156 549 156 531L158 529H167Q177 538 186 538H202L209 548Q209 558 179
564L170 562L160 571H154L147 564ZM288 545V543Q288 538 304 536L306 538Q302 549 297 550H292L288 545ZM387 538L389 536H396V543H392L387 538ZM359 499V492H366V499H359ZM292 476V474H297L302 478L299 481H297L292 476ZM89 446L96 444Q105 447 105 451V455L101
460H96Q89 458 89 446ZM396 411V402H403L406 411H396ZM288 333L295 326H297L302 330V333L297 337H292L288 333ZM278 319Q285 304 290 303H299Q299 321 278 321V319ZM345 321V316H350V321H345ZM115 305V300H119V305H115ZM269 296L264 289V287L271 280L281 287V289Q281
293 269 296ZM170 287V282H174V287H170ZM299 146L297 139L299 136H306L309 143L306 146H299ZM371 136V132H375L380 136L375 141L371 136ZM302 122L306 118L311 125H309L302 122ZM399 95V90H406L408 97L406 99H403L399 95ZM607 97V95H611V97H607ZM602 90L607 86V90H602ZM309
86L302 76V72Q311 61 311 44L318 42L334 51H343L371 56V62L339 79L336 76H325Q314 86 309 86ZM549 79L553 74L560 81L556 86L549 79ZM290 67V60H295L299 65V67H290ZM607 65V62H611V65H607ZM546 58L542 51L544 49H551V53L546 58ZM602 58L607 53V58H602ZM292 42H297L304
49H302L292 42ZM607 42V39L611 35V42H607ZM604 30V25H607V30H604ZM389 21V14H394L399 18L396 21H389ZM595 11V7H597V11H595Z" />
<glyph unicode="n" glyph-name="n" horiz-adv-x="457" d="M62 612H407L412 608L407 0H394L387 5H382L375 0H280L275 5V23L278 25L275 28V499H196L199 471Q199 438 185 438V434Q185 429 194 429L196 427V424L194 373L190 369V366L194 360V234Q194 227 185 227V222L194
211V206H192L176 211V209Q178 198 194 188L196 35L194 32L196 30V28Q196 0 190 0H62Q59 0 48 49V151Q48 183 34 216L43 267V311H48V302H50L57 392V608L62 612ZM113 517V513L115 510V508L122 510V517H113ZM187 515V513H192V515H187ZM141 476V469H146L150 473L148
476H141ZM292 457V452H296L303 459L299 464L292 457ZM285 434V427H294V434H285ZM322 369V360H329L331 366L329 369H322ZM292 297L299 292L301 295V302H296L292 297ZM127 288V285L136 276V281L129 288H127ZM115 197V195L122 188H125V197H115ZM164 186L162 183V176L166
172L178 174V179Q176 186 164 186ZM69 179L66 176V172H69L73 176L71 179H69ZM146 139L153 130H155Q160 130 162 142L155 146H153L146 139ZM343 28V25H347V28H343ZM350 28V25H354V28H350Z" />
<glyph unicode="o" glyph-name="o" horiz-adv-x="451" d="M63 612H409L414 608V427L411 236Q402 236 402 232V227H411L414 5L409 0H63L59 5V32L52 60V167Q52 202 38 229L47 285V327H52V318H54L59 376V608L63 612ZM147 547Q150 538 154 538L161 545V554H152Q147
554 147 547ZM203 503Q203 446 196 441L200 436Q199 366 189 366L187 364V360Q196 360 196 355V353L189 343Q196 341 196 330V165L200 128V114L205 109H274Q281 109 281 123H284L274 137V503H203ZM351 438V434L356 438H351ZM381 415L379 408L381 406H386L388 408H391L388
415H381ZM295 394L300 390L305 394L300 399L295 394ZM147 380L152 376L154 378H156L154 385H152L147 380ZM335 360V357L356 350L358 353Q354 363 349 364H347L335 360ZM370 332L377 327H379L381 334L379 336H374L370 332ZM286 318V313H295V318L291 323L286 318ZM138
306V304L142 299L147 304L145 306H138ZM347 295L344 292V288H354V292L347 295ZM330 281V276L342 274H349V276L340 288L330 281ZM142 267V257H145L156 260V269L152 274H149L142 267ZM335 216V213L340 209L344 213V216H335ZM281 211V209L291 199H293Q288 210 284
211H281ZM133 190V181H142L147 186V195H142V197L133 190ZM342 151V144L347 139H349L354 144V151H342ZM330 132Q337 117 342 116H351Q351 135 330 135V132ZM398 135V130H402V135H398ZM98 128V125Q103 100 108 100H117L119 102L122 109H124Q115 128 101 128H98ZM166
118V114H173V118H166ZM321 109L316 102Q320 93 323 93Q334 97 335 102L321 109ZM224 102L221 100V95H228V97L224 102ZM333 69V67L337 62H344V69L340 74H337L333 69ZM302 67V58L309 51Q316 53 316 65L314 67H302ZM388 58V51H393V53L388 58ZM321 56Q329 37 335 37L342
39Q342 56 321 56ZM89 51V44L96 23H108Q111 23 115 32Q115 39 96 51H89ZM263 44V35H272V37L265 44H263ZM156 37H163V42H161L156 37ZM309 30V16H312Q324 16 326 23Q323 30 312 30H309ZM212 18L214 16H219V23H217L212 18Z" />
<glyph unicode="p" glyph-name="p" horiz-adv-x="465" d="M73 610H420V603L423 343L420 253L418 250H288L281 255L274 250H205L214 197Q208 197 205 179V5L200 0H191L193 16L174 30H167V23Q172 17 174 0H61Q34 0 31 12V95L52 179Q40 179 40 211V213L45 285L42
373L40 385L42 387L45 385H47L73 394H89L93 399V410L66 420L56 417L40 431V436L38 466Q35 499 68 552V605L73 610ZM156 483L144 490L130 485H100V480Q120 470 184 420L151 320L235 380H240L323 320V323L290 422L376 485H274Q266 485 240 582L202 483H156ZM177 570V561L188
559V570H184V573L177 570ZM107 540V536L112 531H116V536L112 540H107ZM156 529L153 527V515H158V513Q169 517 170 522V524L156 529ZM59 522V515H63V517L59 522ZM341 371V369H346V371H341ZM369 343L374 339H378V348H374L369 343ZM286 332V327L288 325V323L295 325V332H286ZM137
313L142 309L146 313L142 318L137 313ZM177 297V292H181L186 297V302H181L177 297ZM253 297L249 290L251 288H258V292L253 297ZM325 295V290L346 283L348 285V288L339 297L325 295ZM179 278V276H186L188 278V281H186L179 278ZM365 271L360 264L367 260L371 267L365
271ZM128 236L133 232L135 234H137L135 241H133L128 236ZM133 202V195L137 190Q146 194 146 197V202L142 206H137L133 202ZM160 142Q166 125 174 125L181 128Q181 142 160 144V142ZM123 123V114H133L137 118V125L133 130H130L123 123ZM156 51V46H163V51H156Z" />
<glyph unicode="q" glyph-name="q" horiz-adv-x="453" d="M45 612H346Q395 612 395 605V564L392 550L395 538V527H392L381 529L378 527V515H383V513L395 520Q409 492 409 469L404 283L409 216Q405 176 395 176Q416 118 416 100V97L418 14Q413 0 392 0H318Q301
23 295 23H292L288 18L292 5L288 0H262Q259 0 251 42V125Q251 178 232 202L242 241L244 239H249L253 243V246Q242 246 242 250H132L125 255H123L116 250H45L40 255V355L42 357L40 360V559L54 573V577L40 594V608L45 612ZM219 570Q193 483 188 483H98L172 424L144
336Q214 390 223 390L297 336V339Q269 417 269 427L344 483H253Q247 486 221 570H219ZM77 554V550L82 554H77ZM258 547V543Q265 520 269 520H276L283 527V534L265 550L258 547ZM327 536V534L339 531H341V536L337 540H332L327 536ZM283 522V515H288V517L283 522ZM362
487V485Q364 471 369 471Q376 473 376 485V487L369 490L362 487ZM102 373V369L107 364L109 366V373H102ZM214 348V339H219L223 343L219 348H214ZM128 327V325H137V332H132L128 327ZM286 320L279 311L281 309H286L292 316L286 320ZM93 292V288H100L102 295L100 297H98L93
292ZM170 292V290L188 283L191 285V288Q187 297 184 297H179L170 292ZM274 290V285L279 281L283 288L281 290H274ZM205 267V264L207 262V260L214 262V267L209 271L205 267ZM269 236L272 229H274L283 234V236L279 241L269 236ZM309 220L313 216H316V225H313L309
220ZM265 209V204H272L274 211L272 213H269L265 209ZM281 153L286 149L290 153V158H286L281 153ZM299 146V139H309V146H299ZM348 123V114H358L365 121L358 130H355L348 123ZM272 76L276 72H281V81H276L272 76ZM381 51V46H388V51H381Z" />
<glyph unicode="r" glyph-name="r" horiz-adv-x="440" d="M45 610L47 612H395L400 608V508L395 503H184L187 501V499L180 490V485Q191 485 191 473L189 362Q189 348 180 348V341Q189 341 189 197L184 176V165Q198 99 198 72L196 58L198 9Q188 0 175 0H147Q142
0 142 7H131Q131 0 126 0H52L47 5V35L50 56L47 72L52 76V81L47 88V176L38 204L40 206V209L43 206H47V211L40 220V222L52 220V222Q52 227 43 227L45 250V283Q56 283 56 288L45 299L47 327V427Q49 434 66 434V438L47 455V540L45 550L47 559V587L45 610ZM68 520V510H75V520H68ZM94
473L98 469L103 473V478H98L94 473ZM138 438L135 441H133V436L154 429H156V434L147 443H145L138 438ZM170 415V410L175 406L180 410V415H170ZM149 371V366L154 371H149ZM152 323L145 311L147 309H149L159 313L152 323ZM59 292V288H66V297H63L59 292ZM133 295V292L145
281L147 288L145 295H133ZM170 267V264L173 262V260L180 262V267L175 271L170 267ZM110 246V241L115 236L119 243L117 246H110ZM142 243L135 236L140 222L128 213V209Q128 204 135 204L147 206L145 218H147L152 222V229H145L147 241L145 243H142ZM175 220V216H180L184
220L180 225L175 220ZM124 174H128V179L124 174ZM101 169V160H108L110 167L108 169H101ZM101 146V144Q102 130 108 130Q115 132 115 144V146H101ZM61 123V114H70V121L61 123ZM108 109V100Q108 95 115 95Q124 99 124 102L117 109H108ZM138 74L140 72H147L152 76V81L147
86Q138 83 138 74ZM91 65V60L98 53L105 60V65L101 69H96L91 65ZM131 69V67Q134 50 140 49H152Q152 62 131 69ZM73 67L70 65V62L77 56V53H70V49L75 44Q80 44 80 56H82Q78 66 73 67ZM117 37V28H122V25Q132 30 133 35V37L124 42H122L117 37Z" />
<glyph unicode="s" glyph-name="s" horiz-adv-x="489" d="M94 612H423L428 608V501L423 496H210V390H423Q447 344 446 330L437 216L439 160Q440 151 428 144L446 95L444 37L437 35L425 42L418 39V30Q428 20 428 2L425 0H77L73 5V111L77 116H219L244 114L263 116H288V130Q288
144 274 162L284 192V225H77Q73 225 73 241Q47 254 47 274V278L52 285V346Q52 369 38 387L47 422V448H52V443H54L66 522H68L66 554Q63 594 75 594Q96 594 96 598V601L94 612ZM286 566L293 559H295L300 564V566L295 570H291L286 566ZM277 554V552L288 534L298 536Q298
550 277 554ZM344 554V547L349 552L347 554H344ZM217 536L221 531H224L228 536L221 540L217 536ZM112 538V534H119L115 538H112ZM263 520L265 513H272L279 520V524L267 527Q263 527 263 520ZM168 520V517L173 513L175 515V520H168ZM298 378L295 371L298 369H300L307
376L305 378H298ZM370 369V364H374L379 369L374 373L370 369ZM300 355V353H307L309 355V357H307L300 355ZM398 332V323H404V332H398ZM247 316L249 309H256V313L251 318L249 316H247ZM291 302L286 295L288 292H295V297L291 302ZM361 295V288H365L370 292V295H361ZM434
295V290H439L434 295ZM291 278V274H293L298 278H291ZM391 255L388 253V246H395V250L391 255ZM242 241L240 239V232H247V236L242 241ZM384 144L381 142V139Q388 139 388 132H393V135L384 144ZM374 67L372 65V62L377 58L372 51V49L377 44H381L384 60L374 67ZM198
60L205 32H217L224 39Q224 50 207 60H198ZM265 46H272V51H270L265 46ZM323 32V30L328 25V32H323Z" />
<glyph unicode="t" glyph-name="t" horiz-adv-x="431" d="M153 612H281L286 608V531L288 471L286 413V362H353L362 346H376Q378 362 383 362H390L395 357V255L390 250H286V5L281 0H202V2L207 9V14L195 16H193L191 9L193 0H153L149 5V16Q140 16 135 44L139 169Q140
188 128 211L137 250H45L40 255V357L45 362H149V608L153 612ZM70 350V346H75L79 350L75 355L70 350ZM142 348V341H151V348H142ZM72 332V327H75L79 332H72ZM253 318L258 313H262V323H258L253 318ZM172 309L170 306V299H174L179 304V306L172 309ZM320 288L325 283L332
290L327 295L320 288ZM214 267V262Q226 262 226 257L232 262L223 274L214 267ZM318 267L313 260L316 257H323V262L318 267ZM219 202V199L223 195L228 199L226 202H219ZM156 118L165 107V111L163 118H156ZM216 60L214 53L221 49H228V56L223 60H216ZM205 44V42Q212
23 219 23L226 25Q226 40 205 44ZM272 44V37L276 42L274 44H272ZM144 25L149 21H151L156 25L149 30L144 25Z" />
<glyph unicode="u" glyph-name="u" horiz-adv-x="460" d="M59 612H68Q75 612 75 603H82L94 612H101V610L96 603V598L112 596H115V598L108 610V612H110L112 610L124 612H187Q191 612 191 605L194 517L191 383V116H258L261 195Q261 217 249 243L261 299V336H263L265
334H268Q271 350 275 350L282 348L284 350V353L272 357V608L277 612H405L409 608V580L421 515V506L409 325V5L405 0H335L337 12Q337 22 295 28Q295 31 286 35Q276 30 275 25V23L284 9V5L279 0H59L54 5V46Q42 62 43 74L48 192Q45 218 36 243Q48 288 48 339H52V334H54V517L59
522L54 536V608L59 612ZM342 598V594Q344 587 356 587L358 589H361Q357 601 349 601L342 598ZM59 577V573H57Q61 562 66 561Q73 564 73 575L71 577H59ZM168 559V550H170L175 554V559H168ZM103 540L101 538V534H108V536L103 540ZM349 531L347 529V524H351L356 529L349
531ZM145 506V494H147L159 496V506L154 510H149L145 506ZM110 476L105 471Q108 462 117 462L119 464V473L110 476ZM163 459V452H168V455L163 459ZM96 455Q102 440 108 438H117Q117 457 96 457V455ZM284 448V445L293 436V441L286 448H284ZM84 431L82 420L84 417H94L98
422V424Q96 431 84 431ZM96 392L103 385H105L110 390V392L105 396H101L96 392ZM66 387Q71 373 75 373L82 387L75 392H73L66 387ZM342 383L349 376H351L356 380V383L351 387H347L342 383ZM87 380V378Q93 363 98 362H108Q108 376 87 380ZM154 380V376H159V380H154ZM333
369Q339 354 344 353H354Q354 371 333 371V369ZM400 371V366H405V371H400ZM168 355V350H175L170 355H168ZM73 348V346L80 339Q90 343 91 348L84 353H78L73 348ZM323 346L319 339V336L326 330Q337 334 337 339L323 346ZM59 313V309H57Q61 298 66 297Q73 299 73 311L71
313H59ZM305 304V299H302Q307 288 312 288L319 297V299L314 304H305ZM354 195V190L358 186L363 192L361 195H354ZM356 169H361L365 174H361L356 169ZM302 132L305 125H307L312 130L307 135L305 132H302ZM344 118V109H351L354 116L351 118H344ZM347 95L351 90L356
97H354L347 95ZM298 58L295 56V49H302V53L298 58Z" />
<glyph unicode="v" glyph-name="v" horiz-adv-x="434" d="M172 612Q175 612 212 429L242 278H244V304H249V299H251Q251 341 260 341V346L256 350L258 373V608L262 612H383L388 603L381 594L388 589H390V596H395L392 584V580Q392 518 397 487L395 276L397 21Q395
0 390 0H318L313 5L318 9L311 16H302V0H212V9H209L207 7H205L207 5V0H163Q159 0 149 44Q138 44 114 179Q104 205 91 220V255L79 320H84V316H86V323L79 387Q88 392 88 399L75 415L40 610L42 612H172ZM390 612L395 608H390V612ZM276 596V591H283V596H276ZM332 573L334
570H339V577H337L332 573ZM376 522L374 520V513H383V515L376 522ZM267 515L269 513H272L274 515V520H272L267 515ZM323 496L325 494H330V501H327L323 496ZM179 350V346H188V350L184 355L179 350ZM327 348V343H332L327 348ZM334 343H339V348L334 343ZM184 332V327H186L193
334H191L184 332ZM365 323V318L369 313L374 318L369 323H365ZM279 304L283 299H288V304L283 309L279 304ZM130 292V290L135 285H139V288L135 292H130ZM323 267V262L339 260H341V262L332 274Q323 270 323 267ZM128 222L123 216L125 213H132V218L128 222ZM200 220V216H205L200
220ZM207 216H212V220L207 216ZM327 202V197L334 195L337 197V202H327ZM239 197L237 195V190L242 186L246 190V195L239 197ZM125 169V167H135L142 174L135 181V183Q125 181 125 169ZM151 176L156 172H160V176L156 181L151 176ZM302 162L304 156H306L316 160L311
167L302 162ZM195 139V135L212 132H214V137L205 146Q195 142 195 139ZM299 139L297 137V130H304L306 137L299 139ZM267 121L265 118V116Q272 116 272 107H276V109Q272 120 267 121ZM267 90V86H272L276 90L272 95L267 90ZM200 69L207 67L209 69V74H205L200 69ZM332
72V65H341V72H332ZM325 56V53L330 49H337V56L332 60H330L325 56ZM381 39V37H385V44L381 39ZM316 42V39Q316 30 327 23L337 25Q332 42 316 42ZM256 30V21H265V23L258 30H256Z" />
<glyph unicode="w" glyph-name="w" horiz-adv-x="650" d="M40 610L43 612H173Q181 612 196 513Q199 512 224 373L221 371H219V373L210 366V362Q233 362 233 323Q236 322 249 274H251L254 302V346H258V608L263 612H391L395 608V577L409 510L400 327L402 248H404Q471
612 479 612H606L611 608L602 561L604 554Q565 351 565 302V299H567Q567 306 572 306V304L560 248L562 222V213Q562 208 542 176Q514 41 507 37Q493 2 488 0H163Q159 0 138 118Q121 211 103 211L98 227V248Q98 264 82 320H87L89 311H91V316L87 350L101 360H117Q129
360 131 366Q131 381 108 385V387L96 385H94Q73 393 73 429L77 434Q68 434 68 438V441L75 450Q61 456 61 476L38 566L47 570L40 610ZM138 448V445L142 441H147V445L145 448V450L138 448ZM166 403V399H170L175 403L170 408L166 403ZM316 387L321 383L328 390L323
394L316 387ZM314 366L309 360L312 357H319V362L314 366ZM281 323V313H288V323H281ZM214 302V297L221 295L224 297V299L221 302H214ZM347 299V292H356V299H347ZM319 229V225H323L328 229L323 234L319 229ZM395 222V213H398V222H395ZM152 220V218L159 206L161 209H163Q159
219 154 220H152ZM212 160V153L217 149H224V156L219 160H212ZM200 144V142Q206 127 212 125H221Q221 140 200 144ZM267 144V137L272 142V144H267ZM140 128L142 121H147L152 125L145 130L142 128H140ZM189 116L187 107L194 102H196L205 111L198 116H189ZM173 76V67L180
60Q187 62 187 74L184 76H173Z" />
<glyph unicode="x" glyph-name="x" horiz-adv-x="444" d="M74 612L86 600H88Q97 612 107 612L179 614Q186 588 218 542L216 535Q225 535 225 523H228Q245 584 256 584L251 588L265 614H286L395 612L397 609L293 314Q304 285 311 242L346 174L351 153L349 156H342V146H346L353
151Q372 102 372 93V91L369 81L379 56L372 53V46Q385 46 397 5L395 2L321 0H263Q257 3 242 49L223 65L228 102L225 104H221L198 77L202 65Q181 0 177 0H121Q116 0 116 12L114 14H104L100 0L88 2H46L42 7Q142 280 142 291L132 319H137Q137 312 142 312Q142 335 53
579Q65 582 65 586V598Q53 598 42 609L44 612H74ZM144 586Q145 579 163 579Q163 591 156 593H151L144 586ZM149 519L151 516H158V519L153 523L149 519ZM286 521L281 514L283 512H290V516L286 521ZM253 449L258 444L263 449V454H258L253 449ZM146 379V375L153 368H158V372H160L153
382L146 379ZM137 363V361Q142 344 146 344H158V347Q153 363 137 363ZM202 358H207V363L202 358ZM156 186V179H165V186H156ZM228 177V174L235 172L237 174V181H232L228 177ZM311 179V177H316V179H311ZM158 160H163L167 165H163L158 160ZM256 139V132H265V139H256ZM107
121L111 116L116 121L111 125L107 121ZM146 104L151 100L156 104V109H151L146 104ZM295 102V98L316 91L318 93V95L309 104L295 102ZM149 86V84H156L160 88H156L149 86ZM332 74V72L337 67L342 74L337 79L332 74ZM246 58L251 53L256 58L251 63L246 58ZM97 44L102
39L107 44L102 49L97 44ZM304 30L307 28H314V30L309 35L304 30ZM290 21Q293 14 304 14H309V19L300 28L290 21Z" />
<glyph unicode="y" glyph-name="y" horiz-adv-x="470" d="M71 616L175 618Q175 612 189 609V458H196V435L205 400V398Q193 384 191 361L194 359H270V607L275 611H347Q347 602 351 602H354V611H402L406 607V574L425 498L416 312L418 234Q419 210 406 199Q423 145
423 130V35Q423 29 406 25V5L402 0H57L52 5V104L57 109L59 107V104L57 102L59 100H66Q66 109 71 109Q78 109 80 83H92Q98 89 138 95L140 97V100L131 107V109H270V204L261 229L265 250H57Q52 250 52 275L43 285V317L50 326V331Q43 331 43 336L45 352H48Q52 352 55
343H59V340L69 345Q65 359 52 359V384L48 403L50 458L43 567Q53 611 57 611L71 616ZM163 604L166 602V600L175 607L170 611L163 604ZM57 583V579L69 576H76L66 590L57 583ZM156 581V574H166V579L163 581V583L156 581ZM127 535L131 530H136V539H131L127 535ZM62
518V516L66 511L69 514V518H62ZM340 486L342 484H344L356 486V493L349 500Q340 498 340 486ZM163 444L166 442H173L175 449L173 451H170L163 444ZM57 373L59 366H66L71 370V373L66 377H62L57 373ZM115 361V354L120 359L117 361H115ZM295 354L302 326H319L321 338L305
354H295ZM365 345V340H370V345H365ZM316 120L319 113H321L330 118V120L326 125L316 120ZM205 100V97L226 90H229V95L219 104L205 100ZM312 93V88H316L321 93L316 97L312 93ZM62 86V81H64L69 86H62ZM242 76V72L247 67L252 72V76H242ZM156 56L159 53H166V60H161L156
56ZM281 49L286 44L291 49L286 53L281 49ZM307 44L312 37L321 42L319 49H316L307 44ZM219 35L215 28L222 25L224 28V30L219 35ZM347 25V23H356V30H351L347 25ZM201 18L217 11L219 14V18L212 25H208L201 18ZM302 18V11H307L312 16V18H302Z" />
<glyph unicode="z" glyph-name="z" horiz-adv-x="477" d="M77 612H272L279 608L286 612H420L425 608V577L420 570L425 564V503L432 438L434 441H439V420L448 380Q435 361 434 341L436 278L441 274Q432 241 423 241L420 243H418L416 241V239L425 229L423 227H378L286
225L279 227L258 225H209V116H279Q283 116 283 107H286L295 114H365L423 116L427 97V58L423 51V46L427 39V14Q427 2 420 0H295L288 5H283L276 0H77Q72 0 72 21Q43 32 40 42V97L56 144Q44 151 45 165L47 218L40 330Q52 380 70 380Q70 390 75 390H290V438L288 496H77L72
501V608L77 612ZM283 587L281 580L288 570H290L292 573L295 580H297L295 587H283ZM320 580V575Q323 568 334 568L337 570H339Q335 582 327 582L320 580ZM100 540V531H102L109 538L107 540H100ZM390 529L392 522H395L399 527V531H395L392 529H390ZM165 517V510H174V515L172
517V520L165 517ZM327 513L325 510V506H332V508L327 513ZM334 478L330 471L332 469H339V473L334 478ZM404 471V464H411V471H404ZM334 455V450H337L344 457H341L334 455ZM320 394L323 392H330V399H325L320 394ZM395 394V390L399 385L404 392L402 394H395ZM325 373H327L332
378H330L325 373ZM86 362V357H91V362H86ZM378 353V348H383V353H378ZM420 348L427 343L430 346V348L425 353L420 348ZM251 339V334L256 330H260V334L256 339H251ZM272 334L279 330L281 332V339H276L272 334ZM146 336V332H151V336H146ZM306 325V320H309V325H306ZM202
318V313H205L209 318H202ZM306 318V313H309V318H306ZM112 176L116 172L121 176V181H116L112 176ZM195 179V176H200V179H195ZM139 139V135L144 130L149 137L146 139H139ZM102 102V95H112V100L109 102V104L102 102ZM323 100L320 93L323 90H330V93L327 100H323ZM283
93L288 88L292 93V97H288L283 93ZM395 90V86H402L404 93L402 95H399L395 90ZM219 79L214 72V69L221 67L223 69V74L219 79ZM290 72L295 67H297V74L290 72ZM397 74V67L406 65V69L402 74H397ZM130 58V53H135L139 58L135 62L130 58ZM253 49L260 44L262 46V53H258L253
49ZM281 42L286 37L292 44L288 49L281 42ZM272 37L274 30H281V35L279 37V39L272 37ZM191 35L188 32V28H193L198 32L191 35ZM279 21L274 14L276 12H283V16L279 21Z" />
<glyph unicode="{" glyph-name="braceleft" horiz-adv-x="318" d="M37 486V484H41V486H37ZM74 463V458L78 453H83V463H74ZM111 428L116 423L123 430L120 437L111 428ZM104 399V397L111 395L113 397V404H109L104 399ZM74 355L76 353H83V360H78L74 355ZM41 341L39
339V334H46V337L41 341ZM113 271V262H120L123 269L120 271H113ZM34 191L41 184H44L48 189V191L44 196H39L34 191ZM62 180V175H67V180H62ZM44 9L48 5L53 9V14H48L44 9ZM202 7V2H205V7H202ZM132 612L127 607L129 605Q129 601 125 603L132 612ZM45 603L50 607L54 603V598H50L45
603ZM204 605V610H206V605H204ZM34 612L260 613L263 494L143 496Q130 496 130 487Q130 484 132 478T134 468Q134 435 135 388T137 308V173Q137 163 142 140T146 103H252L256 98V5L252 0H130L125 5L127 7Q127 11 123 9L113 2Q108 2 32 0L30 2V9Q30 18 25 33T19 56L20
61L25 68L24 106Q24 122 27 145Q23 154 25 170H30L32 161H46Q46 172 25 184Q25 200 11 231Q22 283 20 332H25V323H27Q31 351 30 402Q31 402 50 397L53 399Q48 412 39 411L32 406H30V608L34 612Z" />
<glyph unicode="|" glyph-name="bar" horiz-adv-x="318" d="M221 635V632H216V635H221ZM183 604V597L178 591H173V604H183ZM114 557L109 551L102 560L104 569L114 557ZM121 519V516L114 513L111 516V526H116L121 519ZM152 460L150 457H143V466H147L152 460ZM216
442L218 438V432H211V435L216 442ZM111 348V335H104L102 345L104 348H111ZM223 241L216 232H214L209 238V241L214 248H218L223 241ZM164 226V220H159V226H164ZM214 -2L209 -8L204 -2V4H209L214 -2ZM212 791L207 796L203 791V784H207L212 791ZM223 803H92L88 797L89
761Q89 743 84 709T78 657Q78 614 83 528T88 398V217Q88 204 83 178T77 137L78 123L87 116L82 111V-14L87 -21L126 -14L131 -8L128 -5L133 -2L143 -11Q158 -9 183 -11Q204 -12 226 -14L228 -11L227 -2Q211 8 211 19Q211 28 224 39T238 60V67L233 76V128Q233 149
230 179Q234 192 233 213H228L226 201H211Q212 217 233 232Q233 254 247 294Q237 356 238 429H233V416H230Q226 454 228 523L206 516L204 519Q209 536 218 535L226 528H228V797L223 803Z" />
<glyph unicode="}" glyph-name="braceright" horiz-adv-x="318" d="M290 486V484H286V486H290ZM253 463V458L248 453H244V463H253ZM216 428L211 423L204 430L207 437L216 428ZM223 399V397L216 395L214 397V404H218L223 399ZM253 355L251 353H244V360H249L253
355ZM286 341L288 339V334H281V337L286 341ZM214 271V262H207L204 269L207 271H214ZM293 191L286 184H283L279 189V191L283 196H288L293 191ZM265 180V175H260V180H265ZM283 9L279 5L274 9V14H279L283 9ZM125 7V2H122V7H125ZM195 612L200 607L198 605Q198 601 202
603L195 612ZM282 603L277 607L273 603V598H277L282 603ZM123 605V610H121V605H123ZM293 612L67 613L64 494L184 496Q197 496 197 487Q197 484 195 478T193 468Q193 435 192 388T190 308V173Q190 163 185 140T181 103H75L71 98V5L75 0H197L202 5L199 7Q199 11 204
9L213 2Q219 2 295 0L297 2V9Q297 18 302 33T307 56V61L302 68L303 106Q303 122 300 145Q304 154 302 170H297L295 161H281Q281 172 302 184Q302 200 316 231Q305 283 307 332H302V323H300Q296 351 297 402Q296 402 276 397L274 399Q279 412 288 411L295 406H297V608L293
612Z" />
</font>
</defs>
</svg>
